conanlcg
超級版主

[2017] [韓國] [劇情] [BD-720P] 一天 A.Day.2017.720p.BluRay.x264-REGRET 4.37GB

-->

帖子完整標題:一天 A.Day.2017.720p.BluRay.x264-REGRET 4.37GB




◎譯  名 一天 / One Day
◎片  名 ??
◎年  代 2017
◎產  地 韓國
◎類  別 劇情 / 懸疑 / 驚悚
◎語  言 韓語
◎上映日期 2017-06-15(韓國)
◎IMDb評分 6.9/10 from 840 users
◎IMDb鏈接 http://www.imdb.com/title/tt6890376
◎豆瓣評分 7.1/10 from 7780 users
◎豆瓣鏈接 https://movie.douban.com/subject/26757945/
◎片  長 90分鐘
◎導  演 趙善浩 Seon-ho Jo
◎編  劇 趙善浩 Seon-ho Jo
◎主  演 金明民 Myeong-min Kim
      卞耀漢 Yo-han Byun
      申惠善 Hye-sun Shin
      趙恩恒 Eun-hyung Jo
      劉在明 Jae-myung Yoo


◎標  簽 韓國 | 懸疑 | 人性 | 循環 | 劇情 | 2017 | 驚悚 | 科幻

◎簡  介

  因事故而痛失女兒的父親將這“一天”不斷重復,只為能挽救女兒。一天之中有哪些秘密尚待揭開,尋蹤覓跡的故事盡在影片《一天》。
  金明民飾演世界知名胸部外科專家“金俊明”。只為救助一人生命都會用盡全力卻是“零分老爸”。親眼目擊女兒因事故死去的場景后,為能收回覆水,循環往復的“一天”中誓死拼爭。卞耀漢飾演救護車司機“李民哲”,申惠善飾“民哲”妻子“美京”,趙恩亨飾演“金俊明”女兒“恩靜”。
Video
ID : 1
Format : AVC
Format/Info : Advanced Video Codec
Format profile : [email protected]
Format settings : CABAC / 5 Ref Frames
Format settings, CABAC : Yes
Format settings, Reference frames : 5 frames
Codec ID : V_MPEG4/ISO/AVC
Duration : 1 h 30 min
Bit rate : 5 442 kb/s
Width : 1 280 pixels
Height : 536 pixels
Display aspect ratio : 2.40:1
Frame rate mode : Constant
Frame rate : 24.000 FPS
Color space : YUV
Chroma subsampling : 4:2:0
Bit depth : 8 bits
Scan type : Progressive
Bits/(Pixel*Frame) : 0.331
Stream size : 3.42 GiB (78%)
Writing library : x264 core 157 r2969 d4099dd
Encoding settings : cabac=1 / ref=5 / deblock=1:-3:-3 / analyse=0x3:0x133 / me=umh / subme=9 / psy=1 / psy_rd=1.00:0.00 / mixed_ref=1 / me_range=16 / chroma_me=1 / trellis=2 / 8x8dct=1 / cqm=0 / deadzone=21,11 / fast_pskip=0 / chroma_qp_offset=-2 / threads=17 / lookahead_threads=1 / sliced_threads=0 / nr=0 / decimate=1 / interlaced=0 / bluray_compat=0 / constrained_intra=0 / bframes=3 / b_pyramid=2 / b_adapt=1 / b_bias=0 / direct=3 / weightb=1 / open_gop=0 / weightp=2 / keyint=240 / keyint_min=24 / scenecut=40 / intra_refresh=0 / rc_lookahead=50 / rc=2pass / mbtree=1 / bitrate=5442 / ratetol=1.0 / qcomp=0.60 / qpmin=0 / qpmax=69 / qpstep=4 / cplxblur=20.0 / qblur=0.5 / ip_ratio=1.40 / aq=1:1.00
Language : English
Default : Yes
Forced : No

Audio
ID : 2
Format : DTS
Format/Info : Digital Theater Systems
Codec ID : A_DTS
Duration : 1 h 30 min
Bit rate mode : Constant
Bit rate : 1 509 kb/s
Channel(s) : 6 channels
Channel layout : C L R Ls Rs LFE
Sampling rate : 48.0 kHz
Frame rate : 93.750 FPS (512 SPF)
Bit depth : 24 bits
Compression mode : Lossy
Stream size : 972 MiB (22%)
Language : Korean
Default : Yes
Forced : No

Text
ID : 3
Format : UTF-8
Codec ID : S_TEXT/UTF8
Codec ID/Info : UTF-8 Plain Text
Duration : 1 h 25 min
Bit rate : 35 b/s
Count of elements : 903
Stream size : 21.9 KiB (0%)
Title : English
Language : English
Default : Yes
Forced : Yes

Menu
00:00:00.000 : en:00:00:00.000
00:00:55.833 : en:00:00:55.833
00:07:01.833 : en:00:07:01.833
00:13:47.417 : en:00:13:47.417
00:28:01.917 : en:00:28:01.917
00:40:40.458 : en:00:40:40.458
00:51:50.542 : en:00:51:50.542
01:04:40.542 : en:01:04:40.542
01:19:06.667 : en:01:19:06.667
01:25:11.625 : en:01:25:11.625





1 個附件 售價 大小 下載 時間

A.Day.2017.720p.BluRay.x264-REGRET.torrent 0 金幣 44.45K 889 次 2月前

#1樓
發帖時間:2019-08-15 12:15:00   |   回復數:2
911degrees
隱世仙人♂
非常感謝,謝謝分享
2月前 #2樓
liyouchai
隱世仙人♂
謝謝樓主分享資源
2月前 #3樓
游客組