conanlcg
超級版主

[2018] [歐美] [劇情] [BD-1080P] 紅瓊 Red.Joan.2018.1080p.BluRay.x264-GUACAMOLE 8.74GB

-->

帖子完整標題:紅瓊 Red.Joan.2018.1080p.BluRay.x264-GUACAMOLE 8.74GB




◎譯  名 紅瓊
◎片  名 Red Joan
◎年  代 2018
◎產  地 英國
◎類  別 劇情 / 驚悚 / 傳記
◎語  言 英語
◎上映日期 2018-09-07(多倫多電影節) / 2019-04-19(英國)
◎IMDb評分 6.3/10 from 1673 users
◎IMDb鏈接 http://www.imdb.com/title/tt7615302
◎豆瓣評分 7.2/10 from 80 users
◎豆瓣鏈接 https://movie.douban.com/subject/27133565/
◎導  演 崔佛·納恩 Trevor Nunn
◎編  劇 Lindsay Shapero
◎主  演 湯姆·休斯 Tom Hughes
      索菲·庫克森 Sophie Cookson
      朱迪·丹奇 Judi Dench
      特雷扎·薩博瓦 Tereza Srbova
      勞倫斯·斯佩爾曼 Laurence Spellman
      羅賓·索恩斯 Robin Soans
      Kevin Fuller
      Simon Ludders
      Ciarán Owens
      Irfan Shamji


◎標  簽 英國 | 傳記 | 間諜 | 朱迪·丹奇 | 劇情 | 2018 | 驚悚 | 電影

◎簡  介

  朱迪·丹奇、索菲·庫克森將參演諜戰題材新片[赤姝諜魅](Red Joan,暫譯),影片改編自2014年出版的同名小說,創作靈感來自潛伏在英國最長壽的克格勃女間諜。庫克森與丹奇將在片中分別飾演青年和老年時代的女間諜瓊。英國知名莎劇導演崔佛·納恩將執導這部關于信仰、愛情與政局的影片。

Video
ID : 1
Format : AVC
Format/Info : Advanced Video Codec
Format profile : [email protected]
Format settings : CABAC / 5 Ref Frames
Format settings, CABAC : Yes
Format settings, Reference frames : 5 frames
Codec ID : V_MPEG4/ISO/AVC
Duration : 1 h 40 min
Bit rate : 11.6 Mb/s
Width : 1 920 pixels
Height : 808 pixels
Display aspect ratio : 2.40:1
Frame rate mode : Constant
Frame rate : 24.000 FPS
Color space : YUV
Chroma subsampling : 4:2:0
Bit depth : 8 bits
Scan type : Progressive
Bits/(Pixel*Frame) : 0.313
Stream size : 8.20 GiB (94%)
Writing library : x264 core 157 r2969 d4099dd
Encoding settings : cabac=1 / ref=5 / deblock=1:0:0 / analyse=0x3:0x113 / me=umh / subme=8 / psy=1 / psy_rd=1.00:0.00 / mixed_ref=1 / me_range=16 / chroma_me=1 / trellis=2 / 8x8dct=1 / cqm=0 / deadzone=21,11 / fast_pskip=0 / chroma_qp_offset=-2 / threads=12 / lookahead_threads=2 / sliced_threads=0 / nr=0 / decimate=1 / interlaced=0 / bluray_compat=0 / constrained_intra=0 / bframes=3 / b_pyramid=2 / b_adapt=1 / b_bias=0 / direct=1 / weightb=1 / open_gop=0 / weightp=2 / keyint=250 / keyint_min=24 / scenecut=40 / intra_refresh=0 / rc_lookahead=50 / rc=2pass / mbtree=1 / bitrate=11636 / ratetol=1.0 / qcomp=0.60 / qpmin=0 / qpmax=69 / qpstep=4 / cplxblur=20.0 / qblur=0.5 / ip_ratio=1.40 / aq=1:1.00
Default : Yes
Forced : No

Audio
ID : 2
Format : DTS
Format/Info : Digital Theater Systems
Codec ID : A_DTS
Duration : 1 h 40 min
Bit rate mode : Constant
Bit rate : 768 kb/s
Channel(s) : 6 channels
Channel layout : C L R Ls Rs LFE
Sampling rate : 48.0 kHz
Frame rate : 93.750 FPS (512 SPF)
Bit depth : 24 bits
Compression mode : Lossy
Stream size : 554 MiB (6%)
Language : English
Default : Yes
Forced : No

Menu
00:00:00.000 : en:00:00:00.000
00:06:13.708 : en:00:06:13.708
00:14:22.167 : en:00:14:22.167
00:23:30.542 : en:00:23:30.542
00:31:38.042 : en:00:31:38.042
00:39:50.875 : en:00:39:50.875
00:51:48.625 : en:00:51:48.625
01:01:47.542 : en:01:01:47.542
01:09:32.250 : en:01:09:32.250
01:15:04.000 : en:01:15:04.000
01:23:56.750 : en:01:23:56.750
01:29:02.333 : en:01:29:02.333





1 個附件 售價 大小 下載 時間

Red.Joan.2018.1080p.BluRay.x264-GUACAMOLE.torrent 0 金幣 44.35K 1225 次 2月前

#1樓
發帖時間:2019-08-15 12:18:55   |   回復數:3
911degrees
隱世仙人♂
非常感謝,謝謝分享
2月前 #2樓
tanchoohoon
武林盟主
感謝樓主的無私分享
2月前 #3樓
liyouchai
隱世仙人♂
謝謝樓主分享資源
2月前 #4樓
游客組