conanlcg
超級版主

[2016] [日本] [喜劇] [BD-720P] 老人交響樂團/不老交響夢 Golden.Orchestra.2016.720p.BluRay.x264-REGRET 4.38GB

-->

帖子完整標題:老人交響樂團/不老交響夢 Golden.Orchestra.2016.720p.BluRay.x264-REGRET 4.38GB




◎譯  名 老人交響樂團 / 不老交響夢 / 黃金愛樂樂團(港)
◎片  名 オケ老人!
◎年  代 2016
◎產  地 日本
◎類  別 喜劇 / 音樂
◎語  言 日語
◎上映日期 2016-11-11(日本)
◎IMDb評分 6.8/10 from 61 users
◎IMDb鏈接 http://www.imdb.com/title/tt5101956
◎豆瓣評分 7.3/10 from 984 users
◎豆瓣鏈接 https://movie.douban.com/subject/26637868/
◎片  長 119分鐘
◎導  演 細川徹 T?ru Hosokawa
◎編  劇 細川徹 T?ru Hosokawa / 荒木源 Gen Araki
◎主  演 杏 Anne
      黑島結菜 Yuina Kuroshima
      坂口健太郎 Kentaro Sakaguchi
      笹野高史 Takashi Sasano
      左頓平 Tonpei Hidari
      小松政夫 Masao Komatsu
      藤田弓子 Yumiko Fujita
      石倉三郎 Sabur? Ishikura
      茅島成美 Narumi Kayashima
      喜多道枝 Michie Kita
      森下能幸 Yoshiyuki Morishita
      萩原利久 Riku Hagiwara
      光石研 Ken Mitsuishi


◎標  簽 日本 | 喜劇 | 音樂 | 勵志 | 2016 | 劇情 | 古典樂 | 親情

◎簡  介

  該片改編自荒木源所著同名小說,講述了以熱愛古典音樂的年輕高中老師加入了一個全是老年人的業余交響樂團,在樂團中她不僅將挑戰小提琴的演奏,還在形勢突變的情況下拿起指揮棒,成為了樂團指揮的故事。
Video
ID : 1
Format : AVC
Format/Info : Advanced Video Codec
Format profile : [email protected]
Format settings : CABAC / 5 Ref Frames
Format settings, CABAC : Yes
Format settings, Reference frames : 5 frames
Codec ID : V_MPEG4/ISO/AVC
Duration : 2 h 0 min
Bit rate : 4 572 kb/s
Width : 1 280 pixels
Height : 688 pixels
Display aspect ratio : 1.85:1
Frame rate mode : Constant
Frame rate : 23.976 (24000/1001) FPS
Color space : YUV
Chroma subsampling : 4:2:0
Bit depth : 8 bits
Scan type : Progressive
Bits/(Pixel*Frame) : 0.217
Stream size : 3.83 GiB (88%)
Writing library : x264 core 157 r2970 5493be8
Encoding settings : cabac=1 / ref=5 / deblock=1:-3:-3 / analyse=0x3:0x133 / me=umh / subme=9 / psy=1 / psy_rd=1.00:0.00 / mixed_ref=1 / me_range=16 / chroma_me=1 / trellis=2 / 8x8dct=1 / cqm=0 / deadzone=21,11 / fast_pskip=0 / chroma_qp_offset=-2 / threads=21 / lookahead_threads=1 / sliced_threads=0 / nr=0 / decimate=1 / interlaced=0 / bluray_compat=0 / constrained_intra=0 / bframes=3 / b_pyramid=2 / b_adapt=1 / b_bias=0 / direct=3 / weightb=1 / open_gop=0 / weightp=2 / keyint=240 / keyint_min=24 / scenecut=40 / intra_refresh=0 / rc_lookahead=50 / rc=2pass / mbtree=1 / bitrate=4572 / ratetol=1.0 / qcomp=0.60 / qpmin=0 / qpmax=69 / qpstep=4 / cplxblur=20.0 / qblur=0.5 / ip_ratio=1.40 / aq=1:1.00
Language : English
Default : Yes
Forced : No

Audio
ID : 2
Format : AC-3
Format/Info : Audio Coding 3
Commercial name : Dolby Digital
Codec ID : A_AC3
Duration : 2 h 0 min
Bit rate mode : Constant
Bit rate : 640 kb/s
Channel(s) : 6 channels
Channel layout : L R C LFE Ls Rs
Sampling rate : 48.0 kHz
Frame rate : 31.250 FPS (1536 SPF)
Bit depth : 16 bits
Compression mode : Lossy
Stream size : 549 MiB (12%)
Language : Japanese
Service kind : Complete Main
Default : Yes
Forced : No

Text
ID : 3
Format : UTF-8
Codec ID : S_TEXT/UTF8
Codec ID/Info : UTF-8 Plain Text
Duration : 1 h 54 min
Bit rate : 36 b/s
Count of elements : 1175
Stream size : 30.2 KiB (0%)
Title : English
Language : English
Default : Yes
Forced : Yes

Menu
00:00:00.000 : en:00:00:00.000
00:08:27.215 : en:00:08:27.215
00:14:03.551 : en:00:14:03.551
00:18:12.800 : en:00:18:12.800
00:24:18.707 : en:00:24:18.707
00:32:41.209 : en:00:32:41.209
00:39:04.259 : en:00:39:04.259
00:48:29.240 : en:00:48:29.240
00:53:10.771 : en:00:53:10.771
00:56:44.192 : en:00:56:44.192
01:00:01.431 : en:01:00:01.431
01:04:41.002 : en:01:04:41.002
01:08:15.341 : en:01:08:15.341
01:17:01.075 : en:01:17:01.075
01:23:29.713 : en:01:23:29.713
01:29:11.555 : en:01:29:11.555
01:32:28.251 : en:01:32:28.251
01:39:36.262 : en:01:39:36.262
01:46:16.829 : en:01:46:16.829
01:54:12.846 : en:01:54:12.846





1 個附件 售價 大小 下載 時間

Golden.Orchestra.2016.720p.BluRay.x264-REGRET.torrent 0 金幣 44.64K 371 次 2月前

#1樓
發帖時間:2019-08-15 13:39:08   |   回復數:2
911degrees
隱世仙人♂
非常感謝,謝謝分享
2月前 #2樓
liyouchai
隱世仙人♂
謝謝樓主分享資源
2月前 #3樓
游客組