conanlcg
超級版主

[2019] [歐美] [驚悚] [WEB-1080P] 馬大姐/大媽 Ma.2019.1080p.WEB-DL.AAC2.0.H264-FGT 3.36GB

-->

帖子完整標題:馬大姐/大媽 Ma.2019.1080p.WEB-DL.AAC2.0.H264-FGT 3.36GB




◎譯  名 馬大姐 / 大媽 / 媽媽 / 恐怖大媽(港 / 臺) / 老母
◎片  名 Ma
◎年  代 2019
◎產  地 美國
◎類  別 驚悚 / 恐怖
◎語  言 英語
◎上映日期 2019-05-31(美國)
◎IMDb評分 5.8/10 from 9128 users
◎IMDb鏈接 http://www.imdb.com/title/tt7958736
◎豆瓣評分 5.6/10 from 397 users
◎豆瓣鏈接 https://movie.douban.com/subject/30137082/
◎片  長 99分鐘
◎導  演 泰特·泰勒 Tate Taylor
◎編  劇 斯科蒂·蘭德斯 Scotty Landes
◎主  演 奧克塔維亞·斯賓瑟 Octavia Spencer
      米西·派勒 Missi Pyle
      盧克·伊萬斯 Luke Evans
      朱麗葉特·劉易斯 Juliette Lewis
      戴安娜·希維斯 Diana Silvers
      艾莉森·珍妮 Allison Janney
      麥克利·米勒 McKaley Miller
      多米尼克·伯吉斯 Dominic Burgess
      維克托·特平 Victor Turpin
      丹特·布朗 Dante Brown
      科里·福爾馬尼斯 Corey Fogelmanis


◎標  簽 恐怖 | 驚悚 | 美國 | 懸疑 | 2019 | 劇情 | 黑色幽默 | 霸凌

◎簡  介

  故事講述一群年輕人結識了一個陌生女子,陌生人熱情地邀請這群年輕人在自己的家中開Party,然而意外和恐怖的事情卻接連發生……
Video
ID : 1
Format : AVC
Format/Info : Advanced Video Codec
Format profile : [email protected]
Format settings : CABAC / 5 Ref Frames
Format settings, CABAC : Yes
Format settings, Reference frames : 5 frames
Codec ID : V_MPEG4/ISO/AVC
Duration : 1 h 39 min
Bit rate : 4 583 kb/s
Width : 1 916 pixels
Height : 800 pixels
Display aspect ratio : 2.40:1
Frame rate mode : Constant
Frame rate : 23.976 FPS
Color space : YUV
Chroma subsampling : 4:2:0
Bit depth : 8 bits
Scan type : Progressive
Bits/(Pixel*Frame) : 0.125
Stream size : 3.18 GiB (95%)
Title : Ma.2019.1080p.WEB-DL.AAC2.0.H264-FGT
Language : English
Default : Yes
Forced : No
Color range : Limited
Color primaries : BT.709
Transfer characteristics : BT.709
Matrix coefficients : BT.709

Audio
ID : 2
Format : AAC LC
Format/Info : Advanced Audio Codec Low Complexity
Codec ID : A_AAC-2
Duration : 1 h 39 min
Bit rate : 256 kb/s
Channel(s) : 2 channels
Channel layout : L R
Sampling rate : 48.0 kHz
Frame rate : 46.875 FPS (1024 SPF)
Compression mode : Lossy
Stream size : 182 MiB (5%)
Title : Ma.2019.1080p.WEB-DL.AAC2.0.H264-FGT
Language : English
Default : Yes
Forced : No

Text #1
ID : 3
Format : UTF-8
Codec ID : S_TEXT/UTF8
Codec ID/Info : UTF-8 Plain Text
Duration : 1 h 38 min
Bit rate : 67 b/s
Count of elements : 1734
Stream size : 49.0 KiB (0%)
Language : English
Default : Yes
Forced : No

Text #2
ID : 4
Format : UTF-8
Codec ID : S_TEXT/UTF8
Codec ID/Info : UTF-8 Plain Text
Duration : 1 h 39 min
Bit rate : 80 b/s
Count of elements : 2012
Stream size : 58.8 KiB (0%)
Title : SDH
Language : English
Default : No
Forced : No

Menu
00:00:00.000 : :1
00:05:08.808 : :2
00:10:43.349 : :3
00:15:53.742 : :4
00:19:28.164 : :5
00:25:45.207 : :6
00:30:03.797 : :7
00:35:03.387 : :8
00:40:20.787 : :9
00:45:14.830 : :10
00:50:09.958 : :11
00:54:35.682 : :12
00:57:50.625 : :13
01:02:12.010 : :14
01:06:10.247 : :15
01:11:46.290 : :16
01:16:24.525 : :17
01:20:31.854 : :18
01:25:24.312 : :19
01:32:42.375 : :20





1 個附件 售價 大小 下載 時間

Ma.2019.1080p.WEB-DL.AAC2.0.H264-FGT.torrent 0 金幣 34.19K 1372 次 2月前

#1樓
發帖時間:2019-08-15 14:41:59   |   回復數:5
tanchoohoon
武林盟主
感謝樓主的無私分享
2月前 #2樓
赫爾墨斯
武林高手
我還以為是閑人馬大姐呢。。。
2月前 #3樓
show55667878
武林高手
感謝樓主分享這新片
2月前 #4樓
911degrees
隱世仙人♂
非常感謝,謝謝分享
2月前 #5樓
liyouchai
隱世仙人♂
謝謝樓主分享資源
2月前 #6樓
游客組