conanlcg
超級版主

[更 早] [歐美] [動作] [BD-Remux] 地獄男爵/地獄小子 Hellboy.2004.REMASTERED.1080p.BluRay.REMUX.AVC.DTS-HD.MA.5.1-FGT 25.72

-->

帖子完整標題:地獄男爵/地獄小子 Hellboy.2004.REMASTERED.1080p.BluRay.REMUX.AVC.DTS-HD.MA.5.1-FGT 25.72GB




◎譯  名 地獄男爵 / 地獄小子 / 地獄怪客 / 地獄男孩 / 天魔特攻 / 烈焰奇俠
◎片  名 Hellboy
◎年  代 2004
◎產  地 美國
◎類  別 動作 / 奇幻 / 冒險
◎語  言 英語 / 俄語
◎上映日期 2004-04-02(美國)
◎IMDb評分 6.8/10 from 294044 users
◎IMDb鏈接 https://www.imdb.com/title/tt0167190
◎豆瓣評分 6.9/10 from 55929 users
◎豆瓣鏈接 https://movie.douban.com/subject/1308851/
◎片  長 122分鐘
◎導  演 Guillermo del Toro
◎編  劇 Guillermo del Toro / Peter Briggs / 邁克·米格諾拉 Mike Mignola
◎主  演 朗·普爾曼 Ron Perlman
      約翰·赫特 John Hurt
      塞爾瑪·布萊爾 Selma Blair
      魯珀特·伊文斯 Rupert Evans
      卡瑞爾·羅登 Karel Roden
      杰弗里·塔伯 Jeffrey Tambor
      道格·瓊斯 Doug Jones
      拉迪斯拉夫·伯蘭 Ladislav Beran
      Biddy Hodson
      克里·約翰遜 Corey Johnson
      凱文·特諾 Kevin Trainor
      布萊恩·卡斯佩 Brian Caspe
      詹姆斯·巴伯森 James Babson
      安格斯·麥金尼斯 Angus MacInnes
      吉姆·霍威克 Jim Howick
      羅里·科普斯 Rory Copus


◎標  簽 科幻 | 美國 | 魔幻 | 漫畫改編 | 動作 | 美國電影 | 奇幻 | 2004

◎簡  介

  二戰末期,潰敗的德軍為了扭轉局勢,竟然找來了一個邪惡的巫師,企圖利用他召喚出地獄男爵,打敗盟軍。幸虧盟軍的突擊隊在他們進行儀式時及時趕到,順利挫敗了他們的陰謀,但這時候地獄男爵——1個嬰兒已經被召喚出來了,盟軍見此只好收養了他。教授布魯姆(約翰?赫特 John Hurt 飾)是地獄男爵(朗?普爾曼 Ron Perlman 飾)的養父,他用自己的善良循循教導著男爵,男爵則利用自己刀槍不入的身體和通天本領為美國政府完成了多項特種任務。然而,陰暗邪惡的本性還是一直潛藏在男爵的心底,最終人類的善良能否戰勝來自地獄的邪惡?
Video
ID : 1
Format : AVC
Format/Info : Advanced Video Codec
Format profile : [email protected]
Format settings : CABAC / 2 Ref Frames
Format settings, CABAC : Yes
Format settings, Reference frames : 2 frames
Codec ID : V_MPEG4/ISO/AVC
Duration : 2 h 1 min
Bit rate mode : Variable
Bit rate : 25.9 Mb/s
Width : 1 920 pixels
Height : 1 080 pixels
Display aspect ratio : 16:9
Frame rate mode : Constant
Frame rate : 23.976 (24000/1001) FPS
Color space : YUV
Chroma subsampling : 4:2:0
Bit depth : 8 bits
Scan type : Progressive
Bits/(Pixel*Frame) : 0.521
Stream size : 22.0 GiB (86%)
Title : Hellboy.2004.REMASTERED.1080p.BluRay.REMUX.AVC.DTS-HD.MA.5.1-FGT
Language : English
Default : No
Forced : No

Audio #1
ID : 2
Format : DTS XLL
Format/Info : Digital Theater Systems
Commercial name : DTS-HD Master Audio
Codec ID : A_DTS
Duration : 2 h 1 min
Bit rate mode : Variable
Bit rate : 2 340 kb/s
Channel(s) : 6 channels
Channel layout : C L R Ls Rs LFE
Sampling rate : 48.0 kHz
Frame rate : 93.750 FPS (512 SPF)
Bit depth : 16 bits
Compression mode : Lossless
Stream size : 1.99 GiB (8%)
Title : Hellboy.2004.REMASTERED.1080p.BluRay.REMUX.AVC.DTS-HD.MA.5.1-FGT
Language : English
Default : Yes
Forced : No

Audio #2
ID : 3
Format : AC-3
Format/Info : Audio Coding 3
Commercial name : Dolby Digital
Codec ID : A_AC3
Duration : 2 h 1 min
Bit rate mode : Constant
Bit rate : 640 kb/s
Channel(s) : 6 channels
Channel layout : L R C LFE Ls Rs
Sampling rate : 48.0 kHz
Frame rate : 31.250 FPS (1536 SPF)
Bit depth : 16 bits
Compression mode : Lossy
Stream size : 558 MiB (2%)
Title : Hellboy.2004.REMASTERED.1080p.BluRay.REMUX.AVC.DTS-HD.MA.5.1-FGT
Language : French
Service kind : Complete Main
Default : No
Forced : No

Audio #3
ID : 4
Format : AC-3
Format/Info : Audio Coding 3
Commercial name : Dolby Digital
Codec ID : A_AC3
Duration : 2 h 1 min
Bit rate mode : Constant
Bit rate : 640 kb/s
Channel(s) : 6 channels
Channel layout : L R C LFE Ls Rs
Sampling rate : 48.0 kHz
Frame rate : 31.250 FPS (1536 SPF)
Bit depth : 16 bits
Compression mode : Lossy
Stream size : 558 MiB (2%)
Title : Hellboy.2004.REMASTERED.1080p.BluRay.REMUX.AVC.DTS-HD.MA.5.1-FGT
Language : Portuguese
Service kind : Complete Main
Default : No
Forced : No

Audio #4
ID : 5
Format : AC-3
Format/Info : Audio Coding 3
Commercial name : Dolby Digital
Codec ID : A_AC3
Duration : 2 h 1 min
Bit rate mode : Constant
Bit rate : 640 kb/s
Channel(s) : 6 channels
Channel layout : L R C LFE Ls Rs
Sampling rate : 48.0 kHz
Frame rate : 31.250 FPS (1536 SPF)
Bit depth : 16 bits
Compression mode : Lossy
Stream size : 558 MiB (2%)
Title : Hellboy.2004.REMASTERED.1080p.BluRay.REMUX.AVC.DTS-HD.MA.5.1-FGT
Language : Spanish
Service kind : Complete Main
Default : No
Forced : No

Text #1
ID : 6
Format : UTF-8
Codec ID : S_TEXT/UTF8
Codec ID/Info : UTF-8 Plain Text
Duration : 3 min 41 s
Bit rate : 3 b/s
Count of elements : 4
Stream size : 95.0 Bytes (0%)
Title : English-FORCED-SRT
Language : English
Default : Yes
Forced : No

Text #2
ID : 7
Format : UTF-8
Codec ID : S_TEXT/UTF8
Codec ID/Info : UTF-8 Plain Text
Duration : 1 h 54 min
Bit rate : 34 b/s
Count of elements : 1086
Stream size : 29.2 KiB (0%)
Title : English-SRT
Language : English
Default : No
Forced : No

Text #3
ID : 8
Format : PGS
Muxing mode : zlib
Codec ID : S_HDMV/PGS
Codec ID/Info : Picture based subtitle format used on BDs/HD-DVDs
Duration : 1 h 54 min
Bit rate : 25.4 kb/s
Count of elements : 2723
Stream size : 20.9 MiB (0%)
Title : English-SDH-PGS
Language : English
Default : No
Forced : No

Text #4
ID : 9
Format : PGS
Muxing mode : zlib
Codec ID : S_HDMV/PGS
Codec ID/Info : Picture based subtitle format used on BDs/HD-DVDs
Duration : 1 h 54 min
Bit rate : 20.7 kb/s
Count of elements : 2183
Stream size : 17.0 MiB (0%)
Title : English-PGS
Language : English
Default : No
Forced : No

Text #5
ID : 10
Format : PGS
Muxing mode : zlib
Codec ID : S_HDMV/PGS
Codec ID/Info : Picture based subtitle format used on BDs/HD-DVDs
Duration : 3 min 41 s
Bit rate : 2 122 b/s
Count of elements : 8
Stream size : 57.5 KiB (0%)
Title : English-FORCED-PGS
Language : English
Default : No
Forced : No

Text #6
ID : 11
Format : PGS
Muxing mode : zlib
Codec ID : S_HDMV/PGS
Codec ID/Info : Picture based subtitle format used on BDs/HD-DVDs
Duration : 2 h 1 min
Bit rate : 17.0 kb/s
Count of elements : 1959
Stream size : 14.7 MiB (0%)
Title : French-PGS
Language : French
Default : No
Forced : No

Text #7
ID : 12
Format : PGS
Muxing mode : zlib
Codec ID : S_HDMV/PGS
Codec ID/Info : Picture based subtitle format used on BDs/HD-DVDs
Duration : 1 h 55 min
Bit rate : 19.7 kb/s
Count of elements : 2191
Stream size : 16.2 MiB (0%)
Title : Portuguese-PGS
Language : Portuguese
Default : No
Forced : No

Text #8
ID : 13
Format : PGS
Muxing mode : zlib
Codec ID : S_HDMV/PGS
Codec ID/Info : Picture based subtitle format used on BDs/HD-DVDs
Duration : 1 h 30 min
Bit rate : 949 b/s
Count of elements : 64
Stream size : 626 KiB (0%)
Title : Portuguese-FORCED-PGS
Language : Portuguese
Default : No
Forced : No

Text #9
ID : 14
Format : PGS
Muxing mode : zlib
Codec ID : S_HDMV/PGS
Codec ID/Info : Picture based subtitle format used on BDs/HD-DVDs
Duration : 1 h 55 min
Bit rate : 21.3 kb/s
Count of elements : 2239
Stream size : 17.5 MiB (0%)
Title : Spanish-PGS
Language : Spanish
Default : No
Forced : No

Text #10
ID : 15
Format : PGS
Muxing mode : zlib
Codec ID : S_HDMV/PGS
Codec ID/Info : Picture based subtitle format used on BDs/HD-DVDs
Duration : 1 h 30 min
Bit rate : 958 b/s
Count of elements : 64
Stream size : 632 KiB (0%)
Title : Spanish-FORCED-PGS
Language : Spanish
Default : No
Forced : No

Text #11
ID : 16
Format : PGS
Muxing mode : zlib
Codec ID : S_HDMV/PGS
Codec ID/Info : Picture based subtitle format used on BDs/HD-DVDs
Duration : 2 h 1 min
Bit rate : 555 b/s
Count of elements : 52
Stream size : 493 KiB (0%)
Title : French-FORCED-PGS
Language : French
Default : No
Forced : No

Text #12
ID : 17
Format : PGS
Muxing mode : zlib
Codec ID : S_HDMV/PGS
Codec ID/Info : Picture based subtitle format used on BDs/HD-DVDs
Duration : 2 h 1 min
Bit rate : 555 b/s
Count of elements : 52
Stream size : 493 KiB (0%)
Title : French-FORCED-PGS
Language : French
Default : No
Forced : No

Menu
00:00:00.000 : en:Chapter 01
00:06:42.568 : en:Chapter 02
00:14:38.669 : en:Chapter 03
00:22:50.035 : en:Chapter 04
00:31:06.906 : en:Chapter 05
00:40:08.948 : en:Chapter 06
00:47:42.067 : en:Chapter 07
00:53:32.792 : en:Chapter 08
01:00:00.847 : en:Chapter 09
01:03:57.583 : en:Chapter 10
01:10:57.336 : en:Chapter 11
01:18:40.716 : en:Chapter 12
01:27:56.771 : en:Chapter 13
01:34:50.142 : en:Chapter 14
01:39:44.478 : en:Chapter 15
01:48:09.357 : en:Chapter 16





1 個附件 售價 大小 下載 時間

Hellboy.2004.REMASTERED.1080p.BluRay.REMUX.AVC.DTS-HD.MA.5.1-FGT.torrent 0 金幣 64.87K 126 次 3小時前

#1樓
發帖時間:2019-10-12 04:36:46   |   回復數:0
游客組