conanlcg
超級版主

[2018] [歐美] [劇情] [BD-720P] 皮膚/皮囊 Skin.2018.720p.BluRay.x264-GUACAMOLE 5.46GB

-->

帖子完整標題:皮膚/皮囊 Skin.2018.720p.BluRay.x264-GUACAMOLE 5.46GB




◎譯  名 皮膚 / 皮囊
◎片  名 Skin
◎年  代 2018
◎產  地 美國
◎類  別 劇情
◎語  言 英語
◎上映日期 2018-09-08(多倫多電影節) / 2019-07-26(美國)
◎IMDb評分 7.1/10 from 1329 users
◎IMDb鏈接 http://www.imdb.com/title/tt6043142
◎豆瓣評分 7.7/10 from 65 users
◎豆瓣鏈接 https://movie.douban.com/subject/27041467/
◎片  長 110分鐘
◎導  演 蓋·納蒂弗 Guy Nattiv
◎編  劇 蓋·納蒂弗 Guy Nattiv
◎主  演 杰米·貝爾 Jamie Bell
      維拉·法米加 Vera Farmiga
      丹妮爾·麥克唐納 Danielle Macdonald
      瑪麗·斯圖爾特·馬斯特森 Mary Stuart Masterson
      麥克·柯爾特 Mike Colter
      比爾·坎普 Bill Camp
      路易莎·克勞瑟 Louisa Krause
      珍娜·莉·格林 Jenna Leigh Green
      凱萊·羅杰斯 Kylie Rogers
      羅素·普斯勒 Russell Posner
      丹尼爾·亨紹爾 Daniel Henshall
      佐伊·瑪格麗特·科萊蒂 Zoe Margaret Colletti
      Rob Figueroa
      邁克爾·維拉爾 Michael Villar
      貝蒂娜·斯凱 Bettina Skye
      賈斯汀·L·威爾遜 Justin L. Wilson
      吉姆·福特 Jim Ford
      喬安娜·哈靈頓 Joanna Herrington
      Ghazi Albuliwi


◎標  簽 美國 | JamieBell | 2018 | 犯罪 | 美國電影 | 劇情 | 種族 | 杰米·貝爾

◎簡  介

  杰米·貝爾將出演新片[皮膚](Skin,暫譯),丹妮爾·麥克唐納([帕蒂蛋糕$])也已加盟,導演蓋·納蒂弗([神之子])。影片改編自真人真事。布里恩·溫德爾曾是黑幫組織“溫蘭德光頭黨”頭目,全身刺滿了紋身。2006年婚后的溫德爾決定退出黑幫并進行了25次激光清除手術,去 除了面部頸部手部的紋身。
(https://movie.douban.com/subject/27624787/ 短片版)

◎獲獎情況

  第43屆多倫多國際電影節(2018)
  國際影評人聯盟獎 國際影評人特別獎 蓋·納蒂弗



Video
ID : 1
Format : AVC
Format/Info : Advanced Video Codec
Format profile : [email protected]
Format settings : CABAC / 5 Ref Frames
Format settings, CABAC : Yes
Format settings, Reference frames : 5 frames
Codec ID : V_MPEG4/ISO/AVC
Duration : 1 h 58 min
Bit rate : 5 085 kb/s
Width : 1 280 pixels
Height : 536 pixels
Display aspect ratio : 2.40:1
Frame rate mode : Constant
Frame rate : 23.976 (24000/1001) FPS
Color space : YUV
Chroma subsampling : 4:2:0
Bit depth : 8 bits
Scan type : Progressive
Bits/(Pixel*Frame) : 0.309
Stream size : 4.21 GiB (77%)
Writing library : x264 core 157 r2969 d4099dd
Encoding settings : cabac=1 / ref=5 / deblock=1:0:0 / analyse=0x3:0x113 / me=umh / subme=8 / psy=1 / psy_rd=1.00:0.00 / mixed_ref=1 / me_range=16 / chroma_me=1 / trellis=2 / 8x8dct=1 / cqm=0 / deadzone=21,11 / fast_pskip=0 / chroma_qp_offset=-2 / threads=17 / lookahead_threads=2 / sliced_threads=0 / nr=0 / decimate=1 / interlaced=0 / bluray_compat=0 / constrained_intra=0 / bframes=3 / b_pyramid=2 / b_adapt=1 / b_bias=0 / direct=1 / weightb=1 / open_gop=0 / weightp=2 / keyint=250 / keyint_min=23 / scenecut=40 / intra_refresh=0 / rc_lookahead=50 / rc=2pass / mbtree=1 / bitrate=5085 / ratetol=1.0 / qcomp=0.60 / qpmin=0 / qpmax=69 / qpstep=4 / cplxblur=20.0 / qblur=0.5 / ip_ratio=1.40 / aq=1:1.00
Default : Yes
Forced : No

Audio
ID : 2
Format : DTS
Format/Info : Digital Theater Systems
Codec ID : A_DTS
Duration : 1 h 58 min
Bit rate mode : Constant
Bit rate : 1 509 kb/s
Channel(s) : 6 channels
Channel layout : C L R Ls Rs LFE
Sampling rate : 48.0 kHz
Frame rate : 93.750 FPS (512 SPF)
Bit depth : 24 bits
Compression mode : Lossy
Stream size : 1.25 GiB (23%)
Language : English
Default : Yes
Forced : No

Menu
00:00:00.000 : :Kapitel 01
00:05:08.600 : :Kapitel 02
00:12:43.179 : :Kapitel 03
00:18:54.592 : :Kapitel 04
00:30:26.116 : :Kapitel 05
00:36:40.907 : :Kapitel 06
00:46:40.548 : :Kapitel 07
01:04:07.677 : :Kapitel 08
01:17:10.960 : :Kapitel 09
01:26:51.415 : :Kapitel 10
01:36:28.992 : :Kapitel 11
01:44:10.828 : :Kapitel 12





1 個附件 售價 大小 下載 時間

Skin.2018.720p.BluRay.x264-GUACAMOLE.torrent 0 金幣 27.89K 63 次 2小時前

#1樓
發帖時間:2019-10-12 05:50:56   |   回復數:0
游客組