conanlcg
超級版主

[更 早] [歐美] [喜劇] [WEB-1080P] 新丁駕到/新來的家伙 The.New.Guy.2002.1080p.AMZN.WEBRip.DDP2.0.x264-NTb 7.98GB

-->

帖子完整標題:新丁駕到/新來的家伙 The.New.Guy.2002.1080p.AMZN.WEBRip.DDP2.0.x264-NTb 7.98GB




◎譯  名 新丁駕到 / 新來的家伙 / 高校小生 / 高校瘋神榜
◎片  名 The New Guy
◎年  代 2002
◎產  地 美國
◎類  別 喜劇
◎語  言 英語
◎上映日期 2002-05-10
◎IMDb評分 5.9/10 from 32311 users
◎IMDb鏈接 https://www.imdb.com/title/tt0241760
◎豆瓣評分 6.8/10 from 716 users
◎豆瓣鏈接 https://movie.douban.com/subject/1301068/
◎片  長 88 分鐘
◎導  演 Ed Decter
◎編  劇 David Kendall
◎主  演 DJ Qualls
      Eliza Dushku
      Zooey Deschanel


◎標  簽 喜劇 | 美國 | 青春 | 校園 | 美國電影 | 2002 | 搞笑 | 電影

◎簡  介

  哈迪遜(DJ·考爾斯 DJ Qualls 飾)是一個眾人眼中的討厭鬼,即便很快就要迎來高中生活,但這一狀況卻從未有過改變。從小到大都在嘲笑和欺壓中長大的哈迪遜終于忍耐到了極限,他徹底隨著性子大鬧了一回,卻也因此經歷了牢獄之災。
  在獄中,哈迪遜結識了名叫路德(艾迪·格里芬 Eddie Griffin 飾)的男人,路德是一個經驗豐富的過來人,正是他教會了哈迪遜許多做人的技巧和道理。出獄后的哈迪遜決定改名換姓重新做人,果不其然,利用路德教他的方法,哈迪遜很快便得到了周遭同伴的喜愛和信任。悲慘的生活眼看就要成為過去,就在這個關鍵時刻,一個舊日校友的出現令哈迪遜陷入了謊言被揭穿的危機。
Video
ID : 1
Format : AVC
Format/Info : Advanced Video Codec
Format profile : [email protected]
Format settings : CABAC / 4 Ref Frames
Format settings, CABAC : Yes
Format settings, Reference frames : 4 frames
Codec ID : V_MPEG4/ISO/AVC
Duration : 1 h 28 min
Bit rate mode : Variable
Bit rate : 12.7 Mb/s
Maximum bit rate : 15.0 Mb/s
Width : 1 920 pixels
Height : 1 040 pixels
Display aspect ratio : 1.85:1
Frame rate mode : Constant
Frame rate : 23.976 (24000/1001) FPS
Color space : YUV
Chroma subsampling : 4:2:0
Bit depth : 8 bits
Scan type : Progressive
Bits/(Pixel*Frame) : 0.265
Stream size : 7.84 GiB (98%)
Default : Yes
Forced : No
Color range : Limited
Color primaries : BT.709
Transfer characteristics : BT.709
Matrix coefficients : BT.709

Audio
ID : 2
Format : E-AC-3
Format/Info : Enhanced AC-3
Commercial name : Dolby Digital Plus
Codec ID : A_EAC3
Duration : 1 h 28 min
Bit rate mode : Constant
Bit rate : 224 kb/s
Channel(s) : 2 channels
Channel layout : L R
Sampling rate : 48.0 kHz
Frame rate : 31.250 FPS (1536 SPF)
Compression mode : Lossy
Stream size : 142 MiB (2%)
Language : English
Service kind : Complete Main
Default : Yes
Forced : No

Text #1
ID : 3
Format : UTF-8
Codec ID : S_TEXT/UTF8
Codec ID/Info : UTF-8 Plain Text
Duration : 1 h 22 min
Bit rate : 49 b/s
Count of elements : 911
Stream size : 29.6 KiB (0%)
Language : English
Default : No
Forced : No

Text #2
ID : 4
Format : UTF-8
Codec ID : S_TEXT/UTF8
Codec ID/Info : UTF-8 Plain Text
Duration : 1 h 27 min
Bit rate : 78 b/s
Count of elements : 1717
Stream size : 50.6 KiB (0%)
Title : SDH
Language : English
Default : No
Forced : No

Text #3
ID : 5
Format : UTF-8
Codec ID : S_TEXT/UTF8
Codec ID/Info : UTF-8 Plain Text
Duration : 1 h 22 min
Bit rate : 49 b/s
Count of elements : 911
Stream size : 29.6 KiB (0%)
Language : English
Default : No
Forced : No

Text #4
ID : 6
Format : UTF-8
Codec ID : S_TEXT/UTF8
Codec ID/Info : UTF-8 Plain Text
Duration : 1 h 22 min
Bit rate : 58 b/s
Count of elements : 1223
Stream size : 35.2 KiB (0%)
Language : German
Default : No
Forced : No

Text #5
ID : 7
Format : UTF-8
Codec ID : S_TEXT/UTF8
Codec ID/Info : UTF-8 Plain Text
Duration : 1 h 22 min
Bit rate : 52 b/s
Count of elements : 935
Stream size : 31.6 KiB (0%)
Language : Spanish
Default : No
Forced : No





1 個附件 售價 大小 下載 時間

The.New.Guy.2002.1080p.AMZN.WEBRip.DDP2.0.x264-NTb.torrent 0 金幣 80.35K 56 次 1小時前

#1樓
發帖時間:2019-10-12 06:18:26   |   回復數:0
游客組