conanlcg
超級版主

[2009] [歐美] [恐怖] [WEB-1080P] 喪尸理論學 Zombthology.2008.1080p.WEBRip.x264-iNTENSO 7.21GB

-->

帖子完整標題:喪尸理論學 Zombthology.2008.1080p.WEBRip.x264-iNTENSO 7.21GB




◎譯  名 喪尸理論學
◎片  名 Zombthology
◎年  代 2009
◎產  地 美國
◎類  別 恐怖
◎語  言 英語
◎上映日期 2009
◎IMDb評分 5.2/10 from 78 users
◎IMDb鏈接 https://www.imdb.com/title/tt1127228
◎豆瓣評分 0/10 from 0 users
◎豆瓣鏈接 https://movie.douban.com/subject/5188854/
◎片  長 103分鐘
◎導  演 Elias Dancey / Robert Elkins / Chris Kiros
◎編  劇 Elias Dancey
◎主  演 DaNae West
      Micah Shane Ballinger
      Brittany Bates
      BeBe Bellamont


◎標  簽 美國,幽靈哥佑佑 | 病毒僵尸類變異生物集錦 | 番茄醬吃撐系列 | 恐怖 | 國外電影 | 喪尸

◎簡  介

  暫無相關劇情介紹
Video
ID : 1
Format : AVC
Format/Info : Advanced Video Codec
Format profile : [email protected]
Format settings : CABAC / 4 Ref Frames
Format settings, CABAC : Yes
Format settings, Reference frames : 4 frames
Codec ID : V_MPEG4/ISO/AVC
Duration : 1 h 43 min
Bit rate : 9 833 kb/s
Width : 1 920 pixels
Height : 1 080 pixels
Display aspect ratio : 16:9
Frame rate mode : Constant
Frame rate : 23.976 (24000/1001) FPS
Color space : YUV
Chroma subsampling : 4:2:0
Bit depth : 8 bits
Scan type : Progressive
Bits/(Pixel*Frame) : 0.198
Stream size : 7.08 GiB (98%)
Writing library : x264 core 152 r2851 ba24899
Encoding settings : cabac=1 / ref=4 / deblock=1:-3:-3 / analyse=0x3:0x133 / me=umh / subme=11 / psy=1 / psy_rd=1.05:0.15 / mixed_ref=1 / me_range=16 / chroma_me=1 / trellis=2 / 8x8dct=1 / cqm=0 / deadzone=21,11 / fast_pskip=0 / chroma_qp_offset=-3 / threads=12 / lookahead_threads=1 / sliced_threads=0 / nr=0 / decimate=1 / interlaced=0 / bluray_compat=0 / constrained_intra=0 / bframes=3 / b_pyramid=2 / b_adapt=2 / b_bias=0 / direct=3 / weightb=1 / open_gop=0 / weightp=2 / keyint=250 / keyint_min=24 / scenecut=40 / intra_refresh=0 / rc_lookahead=50 / rc=crf / mbtree=1 / crf=17.0 / qcomp=0.60 / qpmin=0 / qpmax=69 / qpstep=4 / ip_ratio=1.40 / aq=3:0.65
Language : English
Default : Yes
Forced : No

Audio
ID : 2
Format : AAC LC
Format/Info : Advanced Audio Codec Low Complexity
Codec ID : A_AAC-2
Duration : 1 h 43 min
Bit rate : 192 kb/s
Channel(s) : 2 channels
Channel layout : L R
Sampling rate : 48.0 kHz
Frame rate : 46.875 FPS (1024 SPF)
Compression mode : Lossy
Stream size : 139 MiB (2%)
Language : English
Default : Yes
Forced : No





1 個附件 售價 大小 下載 時間

Zombthology.2008.1080p.WEBRip.x264-iNTENSO.torrent 0 金幣 72.72K 77 次 2小時前

#1樓
發帖時間:2019-10-12 06:20:04   |   回復數:0
游客組