conanlcg
超級版主

[更 早] [其他] [劇情] [WEB-1080P] 呼嘯山莊 Wuthering.Heights.1992.1080p.AMZN.WEBRip.DDP5.1.x264-hV 10.17GB

-->

帖子完整標題:呼嘯山莊 Wuthering.Heights.1992.1080p.AMZN.WEBRip.DDP5.1.x264-hV 10.17GB




◎譯  名 呼嘯山莊
◎片  名 Wuthering Heights
◎年  代 1992
◎產  地 英國 / 美國
◎類  別 劇情 / 愛情
◎語  言 英語
◎上映日期 1992-10-16
◎IMDb評分 6.8/10 from 11390 users
◎IMDb鏈接 https://www.imdb.com/title/tt0104181
◎豆瓣評分 7.3/10 from 5938 users
◎豆瓣鏈接 https://movie.douban.com/subject/1301676/
◎片  長 105 分鐘
◎導  演 彼得·考斯明斯金 Peter Kosminsky
◎編  劇 安妮·德夫林 Anne Devlin / 艾米莉·勃朗特 Emily Bront?
◎主  演 朱麗葉·比諾什 Juliette Binoche
      拉爾夫·費因斯 Ralph Fiennes
      珍妮·麥克蒂爾 Janet McTeer
      索菲·沃德 Sophie Ward
      西蒙·謝潑德 Simon Shepherd
      杰瑞米·諾森 Jeremy Northam


◎標  簽 名著改編 | 英國 | RalphFiennes | 愛情 | JulietteBinoche | 經典 | 英國電影 | 茱麗葉·比諾什

◎簡  介

  陰云密布的曠野荒原,一位身披斗篷的孤獨女人行走其間。她緩緩地講述著一個關于愛與復仇的故事。19世紀,英國約克郡。呼嘯山莊的主人恩蕭先生帶回了一個男孩,并取名為希斯克利夫。幾年后,希斯克利夫(拉爾夫·費因斯 Ralph Fiennes飾)便長成了一位英俊少年。恩蕭的女兒凱瑟琳(朱麗葉·比諾什 Juliette Binoche飾)一下子就迷上了這個沉默寡言、我行我素的男孩。然而恩蕭先生對希斯克利夫的寵愛,卻讓恩蕭的兒子亨德雷(杰瑞米·諾森 Jeremy Northam飾)異常嫉妒。一次意外,讓凱瑟琳邂逅了貴族埃德加·林頓(西蒙·謝普德 Simon Shepherd飾)。面對粗俗的希斯克利夫和優雅的林頓家人,凱瑟琳還是嫁給了埃德加。希斯克利夫一怒之下憤然離去。幾年后,衣錦還鄉的希斯克利夫展開了瘋狂地復仇。
  本片改編自英國女作家勃朗特姐妹之一艾米莉·勃朗特的同名作品,著名影星朱麗葉·比諾什和拉爾夫·費因斯首度合作演繹這段經典曠世愛情故事。

◎獲獎情況

  第5屆東京國際電影節(1992)
  主競賽單元 最佳影片(提名) 彼得·考斯明斯金
Video
ID : 1
Format : AVC
Format/Info : Advanced Video Codec
Format profile : [email protected]
Format settings : CABAC / 4 Ref Frames
Format settings, CABAC : Yes
Format settings, Reference frames : 4 frames
Codec ID : V_MPEG4/ISO/AVC
Duration : 1 h 46 min
Bit rate mode : Variable
Bit rate : 13.1 Mb/s
Maximum bit rate : 15.0 Mb/s
Width : 1 920 pixels
Height : 1 080 pixels
Display aspect ratio : 16:9
Frame rate mode : Constant
Frame rate : 23.976 (24000/1001) FPS
Color space : YUV
Chroma subsampling : 4:2:0
Bit depth : 8 bits
Scan type : Progressive
Bits/(Pixel*Frame) : 0.263
Stream size : 9.70 GiB (95%)
Title : Emily Bronte's Wuthering Heights
Writing library : x264 core 148 r2623 d5b2374
Encoding settings : cabac=1 / ref=4 / deblock=1:-1:-1 / analyse=0x3:0x133 / me=umh / subme=9 / psy=1 / psy_rd=1.00:0.15 / mixed_ref=1 / me_range=24 / chroma_me=1 / trellis=2 / 8x8dct=1 / cqm=0 / deadzone=21,11 / fast_pskip=1 / chroma_qp_offset=-3 / threads=34 / lookahead_threads=5 / sliced_threads=0 / nr=150 / decimate=1 / interlaced=0 / bluray_compat=0 / constrained_intra=0 / bframes=8 / b_pyramid=2 / b_adapt=2 / b_bias=0 / direct=3 / weightb=1 / open_gop=0 / weightp=2 / keyint=120 / keyint_min=61 / scenecut=0 / intra_refresh=0 / rc_lookahead=120 / rc=crf / mbtree=1 / crf=18.0 / qcomp=0.60 / qpmin=0 / qpmax=69 / qpstep=4 / vbv_maxrate=15000 / vbv_bufsize=31250 / crf_max=0.0 / nal_hrd=vbr / filler=0 / ip_ratio=1.40 / aq=3:1.00
Default : Yes
Forced : No
Color range : Limited
Color primaries : BT.709
Transfer characteristics : BT.709
Matrix coefficients : BT.709

Audio
ID : 2
Format : E-AC-3
Format/Info : Enhanced AC-3
Commercial name : Dolby Digital Plus
Codec ID : A_EAC3
Duration : 1 h 46 min
Bit rate mode : Constant
Bit rate : 640 kb/s
Channel(s) : 6 channels
Channel layout : L R C LFE Ls Rs
Sampling rate : 48.0 kHz
Frame rate : 31.250 FPS (1536 SPF)
Compression mode : Lossy
Stream size : 487 MiB (5%)
Title : English
Language : English
Service kind : Complete Main
Default : Yes
Forced : No

Text
ID : 3
Format : UTF-8
Codec ID : S_TEXT/UTF8
Codec ID/Info : UTF-8 Plain Text
Duration : 1 h 40 min
Bit rate : 38 b/s
Count of elements : 1124
Stream size : 28.4 KiB (0%)
Title : English
Language : English
Default : No
Forced : No

Menu
00:00:00.180 : en:00:00:00.180
00:00:18.343 : en:00:00:18.343
00:05:43.518 : en:00:05:43.518
00:08:38.703 : en:00:08:38.703
00:11:43.847 : en:00:11:43.847
00:14:07.110 : en:00:14:07.110
00:18:17.125 : en:00:18:17.125
00:20:52.134 : en:00:20:52.134
00:22:23.154 : en:00:22:23.154
00:25:38.163 : en:00:25:38.163
00:27:12.187 : en:00:27:12.187
00:31:14.221 : en:00:31:14.221
00:36:53.242 : en:00:36:53.242
00:40:23.264 : en:00:40:23.264
00:43:57.279 : en:00:43:57.279
00:46:26.288 : en:00:46:26.288
00:47:57.303 : en:00:47:57.303
00:50:32.333 : en:00:50:32.333
00:55:26.354 : en:00:55:26.354
00:59:03.375 : en:00:59:03.375
01:02:34.397 : en:01:02:34.397
01:06:10.405 : en:01:06:10.405
01:07:26.415 : en:01:07:26.415
01:09:06.428 : en:01:09:06.428
01:11:22.439 : en:01:11:22.439
01:13:07.450 : en:01:13:07.450
01:15:00.477 : en:01:15:00.477
01:19:32.499 : en:01:19:32.499
01:23:05.515 : en:01:23:05.515
01:25:47.528 : en:01:25:47.528
01:27:58.551 : en:01:27:58.551
01:31:45.565 : en:01:31:45.565
01:34:11.584 : en:01:34:11.584
01:37:18.599 : en:01:37:18.599
01:39:52.620 : en:01:39:52.620
01:43:21.637 : en:01:43:21.637
01:46:13.638 : en:01:46:13.638





1 個附件 售價 大小 下載 時間

Wuthering.Heights.1992.1080p.AMZN.WEBRip.DDP5.1.x264-hV.torrent 0 金幣 51.52K 98 次 1小時前

#1樓
發帖時間:2019-10-12 06:22:27   |   回復數:0
游客組