conanlcg
超級版主

[更 早] [歐美] [喜劇] [WEB-1080P] 惡夜駭客/惡夜黑客 Wagons.East.1994.1080p.WEBRip.x264-iNTENSO 8.48GB

-->

帖子完整標題:惡夜駭客/惡夜黑客 Wagons.East.1994.1080p.WEBRip.x264-iNTENSO 8.48GB




◎譯  名 惡夜駭客 / 惡夜黑客
◎片  名 Wagons East
◎年  代 1994
◎產  地 美國
◎類  別 喜劇 / 西部 / 冒險
◎語  言 英語
◎上映日期 1994-08-26
◎IMDb評分 4.8/10 from 4648 users
◎IMDb鏈接 https://www.imdb.com/title/tt0111653
◎豆瓣評分 0/10 from 0 users
◎豆瓣鏈接 https://movie.douban.com/subject/1296754/
◎片  長 107 分鐘
◎導  演 彼得·馬克爾 Peter Markle
◎編  劇 Jerry Abrahamson / Matthew Carlson
◎主  演 約翰·坎迪 John Candy
      理查德·劉易斯 Richard Lewis


◎標  簽 麥金雷 | 坎迪

◎簡  介

  暫無相關劇情介紹
Video
ID : 1
Format : AVC
Format/Info : Advanced Video Codec
Format profile : [email protected]
Format settings : CABAC / 4 Ref Frames
Format settings, CABAC : Yes
Format settings, Reference frames : 4 frames
Codec ID : V_MPEG4/ISO/AVC
Duration : 1 h 47 min
Bit rate : 11.1 Mb/s
Width : 1 920 pixels
Height : 1 080 pixels
Display aspect ratio : 16:9
Frame rate mode : Constant
Frame rate : 23.976 (24000/1001) FPS
Color space : YUV
Chroma subsampling : 4:2:0
Bit depth : 8 bits
Scan type : Progressive
Bits/(Pixel*Frame) : 0.223
Stream size : 8.34 GiB (98%)
Writing library : x264 core 155 r2901 7d0ff22
Encoding settings : cabac=1 / ref=4 / deblock=1:-3:-3 / analyse=0x3:0x133 / me=umh / subme=11 / psy=1 / psy_rd=1.05:0.15 / mixed_ref=1 / me_range=16 / chroma_me=1 / trellis=2 / 8x8dct=1 / cqm=0 / deadzone=21,11 / fast_pskip=0 / chroma_qp_offset=-3 / threads=12 / lookahead_threads=1 / sliced_threads=0 / nr=0 / decimate=1 / interlaced=0 / bluray_compat=0 / constrained_intra=0 / bframes=3 / b_pyramid=2 / b_adapt=2 / b_bias=0 / direct=3 / weightb=1 / open_gop=0 / weightp=2 / keyint=250 / keyint_min=24 / scenecut=40 / intra_refresh=0 / rc_lookahead=50 / rc=crf / mbtree=1 / crf=17.0 / qcomp=0.60 / qpmin=0 / qpmax=69 / qpstep=4 / ip_ratio=1.40 / aq=3:0.65
Language : English
Default : Yes
Forced : No

Audio
ID : 2
Format : AAC LC
Format/Info : Advanced Audio Codec Low Complexity
Codec ID : A_AAC-2
Duration : 1 h 47 min
Bit rate : 192 kb/s
Channel(s) : 2 channels
Channel layout : L R
Sampling rate : 48.0 kHz
Frame rate : 46.875 FPS (1024 SPF)
Compression mode : Lossy
Stream size : 145 MiB (2%)
Language : English
Default : Yes
Forced : No





1 個附件 售價 大小 下載 時間

Wagons.East.1994.1080p.WEBRip.x264-iNTENSO.torrent 0 金幣 85.42K 35 次 1小時前

#1樓
發帖時間:2019-10-12 06:24:07   |   回復數:0
游客組