conanlcg
超級版主

[更 早] [歐美] [喜劇] [WEB-1080P] 紅杏出墻/吃錯藥 Unfaithfully.Yours.1948.1080p.AMZN.WEBRip.AAC2.0.x264-SbR 8.68GB

-->

帖子完整標題:紅杏出墻/吃錯藥 Unfaithfully.Yours.1948.1080p.AMZN.WEBRip.AAC2.0.x264-SbR 8.68GB




◎譯  名 紅杏出墻 / 吃錯藥
◎片  名 Unfaithfully Yours
◎年  代 1948
◎產  地 美國
◎類  別 喜劇 / 愛情 / 音樂
◎語  言 英語
◎上映日期 1948-12-10
◎IMDb評分 7.6/10 from 4306 users
◎IMDb鏈接 https://www.imdb.com/title/tt0040919
◎豆瓣評分 7.6/10 from 284 users
◎豆瓣鏈接 https://movie.douban.com/subject/1294824/
◎片  長 105 分鐘
◎導  演 Preston Sturges
◎編  劇 Preston Sturges
◎主  演 Rex Harrison
      Linda Darnell
      Rudy Vallee
      Barbara Lawrence
      Kurt Kreuger


◎標  簽 美國 | 喜劇 | 美國電影 | CC | 1940s | Preston_Sturges | 1948 | PrestonSturges

◎簡  介

  一位樂團指揮,懷疑自己的妻子和男秘書有染,將憤怒和失落融進了自己的指揮中
Video
ID : 1
Format : AVC
Format/Info : Advanced Video Codec
Format profile : [email protected]
Format settings : CABAC / 4 Ref Frames
Format settings, CABAC : Yes
Format settings, Reference frames : 4 frames
Codec ID : V_MPEG4/ISO/AVC
Duration : 1 h 45 min
Bit rate mode : Variable
Bit rate : 11.7 Mb/s
Maximum bit rate : 15.0 Mb/s
Width : 1 440 pixels
Height : 1 080 pixels
Display aspect ratio : 4:3
Frame rate mode : Constant
Frame rate : 23.976 (24000/1001) FPS
Color space : YUV
Chroma subsampling : 4:2:0
Bit depth : 8 bits
Scan type : Progressive
Bits/(Pixel*Frame) : 0.313
Stream size : 8.58 GiB (99%)
Writing library : x264 core 148 r2623 d5b2374
Encoding settings : cabac=1 / ref=4 / deblock=1:-1:-1 / analyse=0x3:0x133 / me=umh / subme=9 / psy=1 / psy_rd=1.00:0.15 / mixed_ref=1 / me_range=24 / chroma_me=1 / trellis=2 / 8x8dct=1 / cqm=0 / deadzone=21,11 / fast_pskip=1 / chroma_qp_offset=-3 / threads=34 / lookahead_threads=5 / sliced_threads=0 / nr=150 / decimate=1 / interlaced=0 / bluray_compat=0 / constrained_intra=0 / bframes=8 / b_pyramid=2 / b_adapt=2 / b_bias=0 / direct=3 / weightb=1 / open_gop=0 / weightp=2 / keyint=120 / keyint_min=61 / scenecut=0 / intra_refresh=0 / rc_lookahead=120 / rc=crf / mbtree=1 / crf=18.0 / qcomp=0.60 / qpmin=0 / qpmax=69 / qpstep=4 / vbv_maxrate=15000 / vbv_bufsize=31250 / crf_max=0.0 / nal_hrd=vbr / filler=0 / ip_ratio=1.40 / aq=3:1.00
Language : English
Default : Yes
Forced : No
Color range : Limited
Color primaries : BT.709
Transfer characteristics : BT.709
Matrix coefficients : BT.709

Audio
ID : 2
Format : AAC LC
Format/Info : Advanced Audio Codec Low Complexity
Codec ID : A_AAC-2
Duration : 1 h 45 min
Bit rate : 125 kb/s
Channel(s) : 2 channels
Channel layout : L R
Sampling rate : 48.0 kHz
Frame rate : 46.875 FPS (1024 SPF)
Compression mode : Lossy
Stream size : 94.3 MiB (1%)
Language : English
Default : Yes
Forced : No

Text #1
ID : 3
Format : UTF-8
Codec ID : S_TEXT/UTF8
Codec ID/Info : UTF-8 Plain Text
Duration : 1 h 44 min
Bit rate : 73 b/s
Count of elements : 1232
Stream size : 56.4 KiB (0%)
Language : English
Default : No
Forced : No

Text #2
ID : 4
Format : UTF-8
Codec ID : S_TEXT/UTF8
Codec ID/Info : UTF-8 Plain Text
Duration : 1 h 44 min
Bit rate : 78 b/s
Count of elements : 1317
Stream size : 60.3 KiB (0%)
Title : SDH
Language : English
Default : No
Forced : No





1 個附件 售價 大小 下載 時間

Unfaithfully.Yours.1948.1080p.AMZN.WEBRip.AAC2.0.x264-SbR.torrent 0 金幣 87.39K 35 次 1小時前

#1樓
發帖時間:2019-10-12 06:26:20   |   回復數:0
游客組