conanlcg
超級版主

[更 早] [其他] [劇情] [WEB-1080P] 殺死牧師 To.Kill.a.Priest.1988.1080p.AMZN.WEBRip.DDP2.0.x264-AM 12.05GB

-->

帖子完整標題:殺死牧師 To.Kill.a.Priest.1988.1080p.AMZN.WEBRip.DDP2.0.x264-AM 12.05GB




◎譯  名 殺死牧師 / Popieluszko / 波皮魯茲科神父
◎片  名 To Kill a Priest
◎年  代 1988
◎產  地 法國 / 美國
◎類  別 劇情 / 驚悚 / 歷史
◎語  言 英語
◎上映日期 1988-09-07
◎IMDb評分 6.1/10 from 1303 users
◎IMDb鏈接 https://www.imdb.com/title/tt0096280
◎豆瓣評分 0/10 from 0 users
◎豆瓣鏈接 https://movie.douban.com/subject/2144586/
◎片  長 117 分鐘
◎導  演 Agnieszka Holland
◎編  劇 阿格涅絲卡·霍蘭 Agnieszka Holland
◎主  演 Tim Roth
      Christopher Lambert
      Ed Harris


◎標  簽 TimRoth | 波蘭 | D阿格涅絲.霍蘭 | 20女導 | 美國 | 電影 | 犯罪 | 法國

◎簡  介

  暫無相關劇情介紹
Video
ID : 1
Format : AVC
Format/Info : Advanced Video Codec
Format profile : [email protected]
Format settings : CABAC / 4 Ref Frames
Format settings, CABAC : Yes
Format settings, Reference frames : 4 frames
Codec ID : V_MPEG4/ISO/AVC
Duration : 1 h 57 min
Bit rate mode : Variable
Bit rate : 14.5 Mb/s
Maximum bit rate : 15.0 Mb/s
Width : 1 920 pixels
Height : 1 080 pixels
Display aspect ratio : 16:9
Frame rate mode : Constant
Frame rate : 23.976 (24000/1001) FPS
Color space : YUV
Chroma subsampling : 4:2:0
Bit depth : 8 bits
Scan type : Progressive
Bits/(Pixel*Frame) : 0.291
Stream size : 11.9 GiB (98%)
Writing library : x264 core 148 r2623 d5b2374
Encoding settings : cabac=1 / ref=4 / deblock=1:-1:-1 / analyse=0x3:0x133 / me=umh / subme=9 / psy=1 / psy_rd=1.00:0.15 / mixed_ref=1 / me_range=24 / chroma_me=1 / trellis=2 / 8x8dct=1 / cqm=0 / deadzone=21,11 / fast_pskip=1 / chroma_qp_offset=-3 / threads=34 / lookahead_threads=5 / sliced_threads=0 / nr=150 / decimate=1 / interlaced=0 / bluray_compat=0 / constrained_intra=0 / bframes=8 / b_pyramid=2 / b_adapt=2 / b_bias=0 / direct=3 / weightb=1 / open_gop=0 / weightp=2 / keyint=120 / keyint_min=61 / scenecut=0 / intra_refresh=0 / rc_lookahead=120 / rc=crf / mbtree=1 / crf=18.0 / qcomp=0.60 / qpmin=0 / qpmax=69 / qpstep=4 / vbv_maxrate=15000 / vbv_bufsize=31250 / crf_max=0.0 / nal_hrd=vbr / filler=0 / ip_ratio=1.40 / aq=3:1.00
Default : Yes
Forced : No
Color range : Limited
Color primaries : BT.709
Transfer characteristics : BT.709
Matrix coefficients : BT.709

Audio
ID : 2
Format : E-AC-3
Format/Info : Enhanced AC-3
Commercial name : Dolby Digital Plus
Codec ID : A_EAC3
Duration : 1 h 57 min
Bit rate mode : Constant
Bit rate : 224 kb/s
Channel(s) : 2 channels
Channel layout : L R
Sampling rate : 48.0 kHz
Frame rate : 31.250 FPS (1536 SPF)
Compression mode : Lossy
Stream size : 188 MiB (2%)
Language : English
Service kind : Complete Main
Default : No
Forced : No

Text
ID : 3
Format : UTF-8
Codec ID : S_TEXT/UTF8
Codec ID/Info : UTF-8 Plain Text
Duration : 1 h 55 min
Bit rate : 73 b/s
Count of elements : 1518
Stream size : 61.8 KiB (0%)
Default : Yes
Forced : No

Menu
00:00:00.000 : en:Chapter 1
00:10:58.000 : en:Chapter 2
00:20:38.000 : en:Chapter 3
00:30:45.000 : en:Chapter 4
00:41:07.000 : en:Chapter 5
00:52:00.000 : en:Chapter 6
01:00:50.000 : en:Chapter 7
01:10:55.000 : en:Chapter 8
01:20:40.000 : en:Chapter 9
01:30:57.000 : en:Chapter 10
01:42:52.000 : en:Chapter 11
01:50:36.000 : en:Chapter 12





1 個附件 售價 大小 下載 時間

To.Kill.a.Priest.1988.1080p.AMZN.WEBRip.DDP2.0.x264-AM.torrent 0 金幣 60.87K 42 次 1小時前

#1樓
發帖時間:2019-10-12 06:28:22   |   回復數:0
游客組