conanlcg
超級版主

[更 早] [歐美] [劇情] [WEB-1080P] 鹿苑長春/溫情載我家 The.Yearling.1946.1080p.AMZN.WEBRip.DD2.0.x264-SbR 10.97GB

-->

帖子完整標題:鹿苑長春/溫情載我家 The.Yearling.1946.1080p.AMZN.WEBRip.DD2.0.x264-SbR 10.97GB




◎譯  名 鹿苑長春 / 溫情載我家 / 綠野恩仇記
◎片  名 The Yearling
◎年  代 1946
◎產  地 美國
◎類  別 劇情 / 家庭
◎語  言 英語
◎上映日期 1946-12-18
◎IMDb評分 7.2/10 from 4991 users
◎IMDb鏈接 https://www.imdb.com/title/tt0039111
◎豆瓣評分 8.1/10 from 528 users
◎豆瓣鏈接 https://movie.douban.com/subject/1296491/
◎片  長 128 分鐘
◎導  演 Clarence Brown
◎編  劇 Paul Osborn
◎主  演 Gregory Peck
      Jane Wyman
      Claude Jarman Jr.


◎標  簽 美國 | 格里高利·派克 | 親情 | 成長 | 美國電影 | 動物 | 兒童 | 1946

◎簡  介

  奧瑞(簡·懷曼 Jane Wyman 飾)和埃茲拉(格利高里·派克 Gregory Peck 飾)本來可以擁有一個幸福的家庭,但兩個孩子的夭折讓奧瑞始終無法解開心結,將自己封閉在充滿了痛苦和絕望的內心世界中不愿意走出來,留下僅剩的孩子朱迪(小克勞德·賈曼 Claude Jarman Jr. 飾),默默忍受著被母親忽視和冷落的孤獨。
  好在埃茲拉是一個樂天而又開朗的男人,他常常陪伴在兒子身邊,父子之間感情十分要好。一場意外中,埃茲拉被毒蛇咬傷,無奈之下殺了一頭鹿,取了鹿膽來解毒。朱迪意外的在草叢里發現了這頭鹿的孩子,善良的朱迪懇求父親將小鹿帶回家照料。小鹿的出現給朱迪一家人帶來了久違的快樂,但這場相遇終究要迎來告別的時刻。

◎獲獎情況

  第19屆奧斯卡金像獎(1947)
  最佳影片(提名)
  最佳導演(提名) 克拉倫斯·布朗
  最佳男主角(提名) 格利高里·派克
  最佳女主角(提名) 簡·懷曼
  彩色片最佳攝影 Charles Rosher / Arthur E. Arling / Leonard Smith
  最佳剪輯(提名) 哈羅德·F.克雷斯
  彩色片最佳藝術指導和室內布景 埃德溫·B·威利斯 / 塞德里克·吉本森 / Paul Groesse

  第4屆金球獎(1947)
  電影類 最佳男主角 格利高里·派克
Video
ID : 1
Format : AVC
Format/Info : Advanced Video Codec
Format profile : [email protected]
Format settings : CABAC / 4 Ref Frames
Format settings, CABAC : Yes
Format settings, Reference frames : 4 frames
Codec ID : V_MPEG4/ISO/AVC
Duration : 2 h 8 min
Bit rate mode : Variable
Bit rate : 12.1 Mb/s
Maximum bit rate : 15.0 Mb/s
Width : 1 920 pixels
Height : 1 080 pixels
Display aspect ratio : 16:9
Frame rate mode : Constant
Frame rate : 23.976 (24000/1001) FPS
Color space : YUV
Chroma subsampling : 4:2:0
Bit depth : 8 bits
Scan type : Progressive
Bits/(Pixel*Frame) : 0.243
Stream size : 10.8 GiB (98%)
Writing library : x264 core 148 r2623 d5b2374
Encoding settings : cabac=1 / ref=4 / deblock=1:-1:-1 / analyse=0x3:0x133 / me=umh / subme=9 / psy=1 / psy_rd=1.00:0.15 / mixed_ref=1 / me_range=24 / chroma_me=1 / trellis=2 / 8x8dct=1 / cqm=0 / deadzone=21,11 / fast_pskip=1 / chroma_qp_offset=-3 / threads=34 / lookahead_threads=5 / sliced_threads=0 / nr=150 / decimate=1 / interlaced=0 / bluray_compat=0 / constrained_intra=0 / bframes=8 / b_pyramid=2 / b_adapt=2 / b_bias=0 / direct=3 / weightb=1 / open_gop=0 / weightp=2 / keyint=120 / keyint_min=61 / scenecut=0 / intra_refresh=0 / rc_lookahead=120 / rc=crf / mbtree=1 / crf=18.0 / qcomp=0.60 / qpmin=0 / qpmax=69 / qpstep=4 / vbv_maxrate=15000 / vbv_bufsize=31250 / crf_max=0.0 / nal_hrd=vbr / filler=0 / ip_ratio=1.40 / aq=3:1.00
Language : English
Default : Yes
Forced : No
Color range : Limited
Color primaries : BT.709
Transfer characteristics : BT.709
Matrix coefficients : BT.709

Audio
ID : 2
Format : AC-3
Format/Info : Audio Coding 3
Commercial name : Dolby Digital
Codec ID : A_AC3
Duration : 2 h 8 min
Bit rate mode : Constant
Bit rate : 192 kb/s
Channel(s) : 1 channel
Channel layout : C
Sampling rate : 48.0 kHz
Frame rate : 31.250 FPS (1536 SPF)
Bit depth : 16 bits
Compression mode : Lossy
Stream size : 176 MiB (2%)
Language : English
Service kind : Complete Main
Default : Yes
Forced : No

Text #1
ID : 3
Format : UTF-8
Codec ID : S_TEXT/UTF8
Codec ID/Info : UTF-8 Plain Text
Duration : 2 h 4 min
Bit rate : 57 b/s
Count of elements : 2028
Stream size : 52.4 KiB (0%)
Language : English
Default : No
Forced : No

Text #2
ID : 4
Format : UTF-8
Codec ID : S_TEXT/UTF8
Codec ID/Info : UTF-8 Plain Text
Duration : 2 h 4 min
Bit rate : 58 b/s
Count of elements : 2094
Stream size : 53.4 KiB (0%)
Title : SDH
Language : English
Default : No
Forced : No





1 個附件 售價 大小 下載 時間

The.Yearling.1946.1080p.AMZN.WEBRip.DD2.0.x264-SbR.torrent 0 金幣 55.45K 70 次 1小時前

#1樓
發帖時間:2019-10-12 06:30:37   |   回復數:0
游客組