conanlcg
超級版主

[2013] [歐美] [恐怖] [WEB-1080P] 神圣秩序 The.Blessed.Ones.2016.1080p.WEBRip.x264-iNTENSO 4.84GB

-->

帖子完整標題:神圣秩序 The.Blessed.Ones.2016.1080p.WEBRip.x264-iNTENSO 4.84GB




◎譯  名 神圣秩序 / Polaris / The Blessed Ones
◎片  名 The Divine Order
◎年  代 2013
◎產  地 美國
◎類  別 恐怖
◎語  言 英語
◎IMDb評分 4.4/10 from 50 users
◎IMDb鏈接 https://www.imdb.com/title/tt2690572
◎豆瓣評分 0/10 from 0 users
◎豆瓣鏈接 https://movie.douban.com/subject/25715838/
◎片  長 79分鐘
◎導  演 Patrick O'Bell
◎編  劇 Patrick O'Bell
◎主  演 Dave Vescio
      Andy Gates
      Tamzin Brown


◎標  簽 2013

◎簡  介

  有福的人在為即將來臨的啟示錄下準備的時候,將一個緊密的詭計掩藏在一個遙遠的沙漠地區。 隨著邪教組織實施大規模自殺條約,兩個毒素試圖逃過廣vast的荒漠荒原
Video
ID : 1
Format : AVC
Format/Info : Advanced Video Codec
Format profile : [email protected]
Format settings : CABAC / 4 Ref Frames
Format settings, CABAC : Yes
Format settings, Reference frames : 4 frames
Codec ID : V_MPEG4/ISO/AVC
Duration : 1 h 19 min
Bit rate : 8 479 kb/s
Width : 1 920 pixels
Height : 1 080 pixels
Display aspect ratio : 16:9
Frame rate mode : Constant
Frame rate : 23.976 (24000/1001) FPS
Color space : YUV
Chroma subsampling : 4:2:0
Bit depth : 8 bits
Scan type : Progressive
Bits/(Pixel*Frame) : 0.171
Stream size : 4.73 GiB (98%)
Writing library : x264 core 150 r2833 df79067
Encoding settings : cabac=1 / ref=4 / deblock=1:-3:-3 / analyse=0x3:0x133 / me=umh / subme=11 / psy=1 / psy_rd=1.05:0.15 / mixed_ref=1 / me_range=16 / chroma_me=1 / trellis=2 / 8x8dct=1 / cqm=0 / deadzone=21,11 / fast_pskip=0 / chroma_qp_offset=-3 / threads=12 / lookahead_threads=1 / sliced_threads=0 / nr=0 / decimate=1 / interlaced=0 / bluray_compat=0 / constrained_intra=0 / bframes=3 / b_pyramid=2 / b_adapt=2 / b_bias=0 / direct=3 / weightb=1 / open_gop=0 / weightp=2 / keyint=250 / keyint_min=24 / scenecut=40 / intra_refresh=0 / rc_lookahead=50 / rc=crf / mbtree=1 / crf=17.0 / qcomp=0.60 / qpmin=0 / qpmax=69 / qpstep=4 / ip_ratio=1.40 / aq=3:0.65
Language : English
Default : Yes
Forced : No

Audio
ID : 2
Format : AAC LC
Format/Info : Advanced Audio Codec Low Complexity
Codec ID : A_AAC-2
Duration : 1 h 19 min
Bit rate : 192 kb/s
Channel(s) : 2 channels
Channel layout : L R
Sampling rate : 48.0 kHz
Frame rate : 46.875 FPS (1024 SPF)
Compression mode : Lossy
Stream size : 108 MiB (2%)
Language : English
Default : Yes
Forced : No





1 個附件 售價 大小 下載 時間

The.Blessed.Ones.2016.1080p.WEBRip.x264-iNTENSO.torrent 0 金幣 194.22K 42 次 1小時前

#1樓
發帖時間:2019-10-12 06:38:06   |   回復數:0
游客組