conanlcg
超級版主

[更 早] [歐美] [喜劇] [WEB-1080P] 牧女戰牛郎/牧羊女大戰牛郎 The.Ballad.of.Josie.1967.1080p.AMZN.WEBRip.DDP2.0.x264-SbR 8.06GB

-->

帖子完整標題:牧女戰牛郎/牧羊女大戰牛郎 The.Ballad.of.Josie.1967.1080p.AMZN.WEBRip.DDP2.0.x264-SbR 8.06GB




◎譯  名 牧女戰牛郎 / 牧羊女大戰牛郎(港)
◎片  名 The Ballad of Josie
◎年  代 1967
◎產  地 美國
◎類  別 喜劇 / 西部
◎語  言 英語
◎上映日期 1967-02-01
◎IMDb評分 5.8/10 from 764 users
◎IMDb鏈接 https://www.imdb.com/title/tt0061380
◎豆瓣評分 0/10 from 0 users
◎豆瓣鏈接 https://movie.douban.com/subject/1304908/
◎片  長 102 分鐘
◎導  演 安德魯·麥克拉格倫 Andrew V. McLaglen
◎編  劇 Harold Swanton
◎主  演 多麗絲·黛 Doris Day
      皮特·格拉維斯 Peter Graves
      喬治·肯尼迪 George Kennedy


◎標  簽 多麗絲·戴 | 西部片 | 西部 | 美國電影 | 喜劇 | 美國 | GeorgeKennedy | DorisDay

◎簡  介

  喬希(桃麗絲·戴 Doris Day 飾)的丈夫阿爾法(保羅·菲克斯 Paul Fix 飾)不幸去世,還未走出喪夫的悲痛,喬希就已經開始為自己的未來擔憂了。阿爾法生前經營著一間小小的農場,他這一死,這塊牧地和喬希的去留成為了街坊領居最關心的問題。堅強的喬希決定自食其力,利用這塊牧地放羊維持生計。
  喬希的這一舉動很快便激怒了小鎮居民們,在當時的男權社會中,一個女人拋頭露面做起買賣是一件多么不體面的事情啊。面對接踵而至的勸說她放棄的說客們,喬希不為所動,因為她知道,只有堅持自己的夢想,撐起家庭的脊梁,她才可能將心愛的兒子維特(Robert Lowery 飾)留在身邊。
Video
ID : 1
Format : AVC
Format/Info : Advanced Video Codec
Format profile : [email protected]
Format settings : CABAC / 4 Ref Frames
Format settings, CABAC : Yes
Format settings, Reference frames : 4 frames
Codec ID : V_MPEG4/ISO/AVC
Duration : 1 h 42 min
Bit rate mode : Variable
Bit rate : 11.1 Mb/s
Maximum bit rate : 15.0 Mb/s
Width : 1 920 pixels
Height : 816 pixels
Display aspect ratio : 2.35:1
Frame rate mode : Constant
Frame rate : 23.976 (24000/1001) FPS
Color space : YUV
Chroma subsampling : 4:2:0
Bit depth : 8 bits
Scan type : Progressive
Bits/(Pixel*Frame) : 0.295
Stream size : 7.90 GiB (98%)
Language : English
Default : Yes
Forced : No
Color range : Limited
Color primaries : BT.709
Transfer characteristics : BT.709
Matrix coefficients : BT.709

Audio
ID : 2
Format : E-AC-3
Format/Info : Enhanced AC-3
Commercial name : Dolby Digital Plus
Codec ID : A_EAC3
Duration : 1 h 42 min
Bit rate mode : Constant
Bit rate : 224 kb/s
Channel(s) : 2 channels
Channel layout : L R
Sampling rate : 48.0 kHz
Frame rate : 31.250 FPS (1536 SPF)
Compression mode : Lossy
Stream size : 164 MiB (2%)
Language : English
Service kind : Complete Main
Default : Yes
Forced : No

Text #1
ID : 3
Format : UTF-8
Codec ID : S_TEXT/UTF8
Codec ID/Info : UTF-8 Plain Text
Duration : 1 h 41 min
Bit rate : 66 b/s
Count of elements : 1711
Stream size : 49.5 KiB (0%)
Language : English
Default : No
Forced : No

Text #2
ID : 4
Format : UTF-8
Codec ID : S_TEXT/UTF8
Codec ID/Info : UTF-8 Plain Text
Duration : 1 h 42 min
Bit rate : 69 b/s
Count of elements : 1849
Stream size : 51.6 KiB (0%)
Title : SDH
Language : English
Default : No
Forced : No

Menu
00:00:00.000 : en:Chapter 1
00:02:15.594 : en:Chapter 2
00:13:56.878 : en:Chapter 3
00:23:15.728 : en:Chapter 4
00:31:10.660 : en:Chapter 5
00:45:19.926 : en:Chapter 6
00:53:48.976 : en:Chapter 7
01:05:32.262 : en:Chapter 8
01:16:39.845 : en:Chapter 9
01:24:11.797 : en:Chapter 10
01:35:00.528 : en:Chapter 11
01:41:38.342 : en:Chapter 12





1 個附件 售價 大小 下載 時間

The.Ballad.of.Josie.1967.1080p.AMZN.WEBRip.DDP2.0.x264-SbR.torrent 0 金幣 81.13K 42 次 1小時前

#1樓
發帖時間:2019-10-12 06:42:43   |   回復數:0
游客組