conanlcg
超級版主

[更 早] [歐美] [劇情] [WEB-1080P] 疤面人 Scarface.1932.1080p.AMZN.WEBRip.AAC2.0.x264-SEV 9.06GB

-->

帖子完整標題:疤面人 Scarface.1932.1080p.AMZN.WEBRip.AAC2.0.x264-SEV 9.06GB




◎譯  名 疤面人 / Scarface, the Shame of the Nation / The Shame of a Nation / 傷疤臉 / 傷面人 / 疤面煞星
◎片  名 Scarface
◎年  代 1932
◎產  地 美國
◎類  別 劇情 / 動作 / 犯罪 / 黑色電影
◎語  言 英語 / 意大利語
◎上映日期 1932-04-09
◎IMDb評分 7.8/10 from 23301 users
◎IMDb鏈接 https://www.imdb.com/title/tt0023427
◎豆瓣評分 8.2/10 from 1988 users
◎豆瓣鏈接 https://movie.douban.com/subject/1299608/
◎片  長 93 分鐘
◎導  演 Howard Hawks / Richard Rosson
◎編  劇 Ben Hecht / Seton I. Miller
◎主  演 保羅·穆尼 Paul Muni
      喬治·拉夫特 George Raft
      卡倫·莫利 Karen Morley
      安·德拉克 Ann Dvorak


◎標  簽 美國 | 霍華德·霍克斯 | 犯罪 | 黑幫 | 1932 | 1930s | 黑色電影 | 美國電影

◎簡  介

  本片講述了二十年代著名的芝加哥犯罪頭目疤面人自崛起至暴斃的故事。全片以阿爾卡邦的生平為藍本,再加上一名有亂倫關系的妹妹,越發使內容顯得復雜而敏感,在當年是具有重大影響力的犯罪片之一。導演霍華德.霍克斯力求使全片看起來生動耀眼,暴力鏡頭有躍出銀幕之感,主角保羅.茂尼的演出亦光芒四射,為類型電影的經典之作。
Video
ID : 1
Format : AVC
Format/Info : Advanced Video Codec
Format profile : [email protected]
Format settings : CABAC / 4 Ref Frames
Format settings, CABAC : Yes
Format settings, Reference frames : 4 frames
Codec ID : V_MPEG4/ISO/AVC
Duration : 1 h 33 min
Bit rate mode : Variable
Bit rate : 13.7 Mb/s
Maximum bit rate : 15.0 Mb/s
Width : 1 440 pixels
Height : 1 080 pixels
Display aspect ratio : 4:3
Frame rate mode : Constant
Frame rate : 23.976 (24000/1001) FPS
Color space : YUV
Chroma subsampling : 4:2:0
Bit depth : 8 bits
Scan type : Progressive
Bits/(Pixel*Frame) : 0.367
Stream size : 8.97 GiB (99%)
Title : Scarface.1932.1080p.AMZN.WEBRip.AAC2.0.x264-SEV
Writing library : x264 core 148 r2623 d5b2374
Encoding settings : cabac=1 / ref=4 / deblock=1:-1:-1 / analyse=0x3:0x133 / me=umh / subme=9 / psy=1 / psy_rd=1.00:0.15 / mixed_ref=1 / me_range=24 / chroma_me=1 / trellis=2 / 8x8dct=1 / cqm=0 / deadzone=21,11 / fast_pskip=1 / chroma_qp_offset=-3 / threads=34 / lookahead_threads=5 / sliced_threads=0 / nr=150 / decimate=1 / interlaced=0 / bluray_compat=0 / constrained_intra=0 / bframes=8 / b_pyramid=2 / b_adapt=2 / b_bias=0 / direct=3 / weightb=1 / open_gop=0 / weightp=2 / keyint=120 / keyint_min=61 / scenecut=0 / intra_refresh=0 / rc_lookahead=120 / rc=crf / mbtree=1 / crf=18.0 / qcomp=0.60 / qpmin=0 / qpmax=69 / qpstep=4 / vbv_maxrate=15000 / vbv_bufsize=31250 / crf_max=0.0 / nal_hrd=vbr / filler=0 / ip_ratio=1.40 / aq=3:1.00
Language : English
Default : Yes
Forced : No
Color range : Limited
Color primaries : BT.709
Transfer characteristics : BT.709
Matrix coefficients : BT.709

Audio
ID : 2
Format : AAC LC
Format/Info : Advanced Audio Codec Low Complexity
Codec ID : A_AAC-2
Duration : 1 h 33 min
Bit rate : 125 kb/s
Channel(s) : 2 channels
Channel layout : L R
Sampling rate : 48.0 kHz
Frame rate : 46.875 FPS (1024 SPF)
Compression mode : Lossy
Stream size : 84.2 MiB (1%)
Language : English
Default : Yes
Forced : No

Text #1
ID : 3
Format : UTF-8
Codec ID : S_TEXT/UTF8
Codec ID/Info : UTF-8 Plain Text
Duration : 1 h 29 min
Bit rate : 65 b/s
Count of elements : 1216
Stream size : 42.9 KiB (0%)
Language : English
Default : No
Forced : No

Text #2
ID : 4
Format : UTF-8
Codec ID : S_TEXT/UTF8
Codec ID/Info : UTF-8 Plain Text
Duration : 1 h 30 min
Bit rate : 66 b/s
Count of elements : 1289
Stream size : 44.1 KiB (0%)
Title : SDH
Language : English
Default : No
Forced : No

Text #3
ID : 5
Format : UTF-8
Codec ID : S_TEXT/UTF8
Codec ID/Info : UTF-8 Plain Text
Duration : 1 h 31 min
Bit rate : 53 b/s
Count of elements : 959
Stream size : 36.0 KiB (0%)
Language : German
Default : No
Forced : No

Text #4
ID : 6
Format : UTF-8
Codec ID : S_TEXT/UTF8
Codec ID/Info : UTF-8 Plain Text
Duration : 1 h 31 min
Bit rate : 55 b/s
Count of elements : 958
Stream size : 37.3 KiB (0%)
Language : French
Default : No
Forced : No

Text #5
ID : 7
Format : UTF-8
Codec ID : S_TEXT/UTF8
Codec ID/Info : UTF-8 Plain Text
Duration : 1 h 31 min
Bit rate : 52 b/s
Count of elements : 960
Stream size : 35.5 KiB (0%)
Language : Spanish
Default : No
Forced : No

Text #6
ID : 8
Format : UTF-8
Codec ID : S_TEXT/UTF8
Codec ID/Info : UTF-8 Plain Text
Duration : 1 h 32 min
Bit rate : 51 b/s
Count of elements : 937
Stream size : 35.2 KiB (0%)
Language : Dutch
Default : No
Forced : No

Text #7
ID : 9
Format : UTF-8
Codec ID : S_TEXT/UTF8
Codec ID/Info : UTF-8 Plain Text
Duration : 1 h 31 min
Bit rate : 48 b/s
Count of elements : 958
Stream size : 32.9 KiB (0%)
Language : Norwegian
Default : No
Forced : No

Text #8
ID : 10
Format : UTF-8
Codec ID : S_TEXT/UTF8
Codec ID/Info : UTF-8 Plain Text
Duration : 1 h 32 min
Bit rate : 55 b/s
Count of elements : 958
Stream size : 37.6 KiB (0%)
Language : Finnish
Default : No
Forced : No

Text #9
ID : 11
Format : UTF-8
Codec ID : S_TEXT/UTF8
Codec ID/Info : UTF-8 Plain Text
Duration : 1 h 32 min
Bit rate : 48 b/s
Count of elements : 962
Stream size : 32.7 KiB (0%)
Language : Polish
Default : No
Forced : No

Text #10
ID : 12
Format : UTF-8
Codec ID : S_TEXT/UTF8
Codec ID/Info : UTF-8 Plain Text
Duration : 1 h 30 min
Bit rate : 49 b/s
Count of elements : 941
Stream size : 32.6 KiB (0%)
Language : Croatian
Default : No
Forced : No

Text #11
ID : 13
Format : UTF-8
Codec ID : S_TEXT/UTF8
Codec ID/Info : UTF-8 Plain Text
Duration : 1 h 30 min
Bit rate : 57 b/s
Count of elements : 961
Stream size : 38.2 KiB (0%)
Language : Romanian
Default : No
Forced : No

Text #12
ID : 14
Format : UTF-8
Codec ID : S_TEXT/UTF8
Codec ID/Info : UTF-8 Plain Text
Duration : 1 h 33 min
Bit rate : 59 b/s
Count of elements : 950
Stream size : 40.6 KiB (0%)
Language : Czech
Default : No
Forced : No

Text #13
ID : 15
Format : UTF-8
Codec ID : S_TEXT/UTF8
Codec ID/Info : UTF-8 Plain Text
Duration : 1 h 32 min
Bit rate : 54 b/s
Count of elements : 961
Stream size : 36.8 KiB (0%)
Language : Hungarian
Default : No
Forced : No

Text #14
ID : 16
Format : UTF-8
Codec ID : S_TEXT/UTF8
Codec ID/Info : UTF-8 Plain Text
Duration : 1 h 33 min
Bit rate : 103 b/s
Count of elements : 1049
Stream size : 70.8 KiB (0%)
Language : Greek
Default : No
Forced : No

Text #15
ID : 17
Format : UTF-8
Codec ID : S_TEXT/UTF8
Codec ID/Info : UTF-8 Plain Text
Duration : 1 h 32 min
Bit rate : 68 b/s
Count of elements : 1101
Stream size : 46.6 KiB (0%)
Language : Turkish
Default : No
Forced : No

Text #16
ID : 18
Format : UTF-8
Codec ID : S_TEXT/UTF8
Codec ID/Info : UTF-8 Plain Text
Duration : 1 h 33 min
Bit rate : 81 b/s
Count of elements : 894
Stream size : 55.8 KiB (0%)
Language : Bulgarian
Default : No
Forced : No

Text #17
ID : 19
Format : UTF-8
Codec ID : S_TEXT/UTF8
Codec ID/Info : UTF-8 Plain Text
Duration : 1 h 33 min
Bit rate : 104 b/s
Count of elements : 1093
Stream size : 71.2 KiB (0%)
Language : Persian
Default : No
Forced : No

Text #18
ID : 20
Format : UTF-8
Codec ID : S_TEXT/UTF8
Codec ID/Info : UTF-8 Plain Text
Duration : 1 h 31 min
Bit rate : 58 b/s
Count of elements : 974
Stream size : 39.5 KiB (0%)
Title : Brazilian
Language : Portuguese
Default : No
Forced : No

Text #19
ID : 21
Format : UTF-8
Codec ID : S_TEXT/UTF8
Codec ID/Info : UTF-8 Plain Text
Duration : 1 h 32 min
Bit rate : 81 b/s
Count of elements : 1217
Stream size : 55.1 KiB (0%)
Language : Chinese
Default : No
Forced : No

Menu
00:00:00.000 : en:(Unnamed scene)
00:00:36.000 : en:(Unnamed scene)
00:02:25.000 : en:(Unnamed scene)
00:05:46.000 : en:(Unnamed scene)
00:06:50.000 : en:(Unnamed scene)
00:09:06.000 : en:(Unnamed scene)
00:13:09.000 : en:(Unnamed scene)
00:17:18.000 : en:(Unnamed scene)
00:18:12.000 : en:(Unnamed scene)
00:22:18.000 : en:(Unnamed scene)
00:25:34.000 : en:(Unnamed scene)
00:27:28.000 : en:(Unnamed scene)
00:29:03.000 : en:(Unnamed scene)
00:30:18.000 : en:(Unnamed scene)
00:32:23.000 : en:(Unnamed scene)
00:36:03.000 : en:(Unnamed scene)
00:40:19.000 : en:(Unnamed scene)
00:41:26.000 : en:(Unnamed scene)
00:44:36.000 : en:(Unnamed scene)
00:46:57.000 : en:(Unnamed scene)
00:49:02.000 : en:(Unnamed scene)
00:50:54.000 : en:(Unnamed scene)
00:52:09.000 : en:(Unnamed scene)
00:54:13.000 : en:(Unnamed scene)
00:56:46.000 : en:(Unnamed scene)
00:58:36.000 : en:(Unnamed scene)
01:03:29.000 : en:(Unnamed scene)
01:06:23.000 : en:(Unnamed scene)
01:10:31.000 : en:(Unnamed scene)
01:14:21.000 : en:(Unnamed scene)
01:16:08.000 : en:(Unnamed scene)
01:17:54.000 : en:(Unnamed scene)
01:19:22.000 : en:(Unnamed scene)
01:22:38.000 : en:(Unnamed scene)
01:25:24.000 : en:(Unnamed scene)
01:33:28.000 : en:(Unnamed scene)





1 個附件 售價 大小 下載 時間

Scarface.1932.1080p.AMZN.WEBRip.AAC2.0.x264-SEV.torrent 0 金幣 91.17K 35 次 1小時前

#1樓
發帖時間:2019-10-12 06:47:05   |   回復數:0
游客組