conanlcg
超級版主

[更 早] [其他] [劇情] [WEB-1080P] 我愛莉莎/愛莉薩 Love.Liza.2002.1080p.AMZN.WEBRip.DDP2.0.x264-monkee 8.70GB

-->

帖子完整標題:我愛莉莎/愛莉薩 Love.Liza.2002.1080p.AMZN.WEBRip.DDP2.0.x264-monkee 8.70GB




◎譯  名 我愛莉莎 / 愛莉薩 / 痛失我妻
◎片  名 Love Liza
◎年  代 2002
◎產  地 法國 / 德國 / 美國
◎類  別 劇情 / 喜劇
◎語  言 英語
◎上映日期 2002-12-30
◎IMDb評分 7.0/10 from 6927 users
◎IMDb鏈接 https://www.imdb.com/title/tt0282698
◎豆瓣評分 7.2/10 from 71 users
◎豆瓣鏈接 https://movie.douban.com/subject/1300124/
◎片  長 90 分鐘
◎導  演 Todd Louiso
◎編  劇 Gordy Hoffman
◎主  演 Philip Seymour Hoffman
      Kathy Bates
      J.D. Walsh


◎標  簽 美國 | PhilipSeymourHoffman | 美國電影 | 愛情 | 法國 | 劇情 | 德國 | 2002

◎簡  介

  Wilson Joel is a man in trouble. There's a searing pain in his gut that he can't tolerate and a dazed quietness to his struggle as he tries to maintain his equilibrium. Wilson is attempting to move on from the sudden and inexplicable suicide of his wife. His mother-in-law is there for him, but her sympathies turn quickly. He has an employer that seems to want to help him, and a workmate who wants him for herself. But nothing and no one can give Wilson solace; so, he seeks oblivion. It is not the usual alcohol or drugs. Wilson inhales fumes from gasoline cans and model airplane fuel and finds temporary salvation in the company of remote-control model enthusiasts. However, nothing that provides him relief really lasts.

◎獲獎情況

  第18屆圣丹斯電影節(2002)
  評審團大獎 劇情片(提名) 托德·路易斯
  沃爾多·斯科特編劇獎 劇情片 Gordy Hoffman
Video
ID : 1
Format : AVC
Format/Info : Advanced Video Codec
Format profile : [email protected]
Format settings : CABAC / 4 Ref Frames
Format settings, CABAC : Yes
Format settings, Reference frames : 4 frames
Codec ID : V_MPEG4/ISO/AVC
Duration : 1 h 29 min
Bit rate mode : Variable
Bit rate : 13.6 Mb/s
Maximum bit rate : 15.0 Mb/s
Width : 1 920 pixels
Height : 1 040 pixels
Display aspect ratio : 1.85:1
Frame rate mode : Constant
Frame rate : 23.976 (24000/1001) FPS
Color space : YUV
Chroma subsampling : 4:2:0
Bit depth : 8 bits
Scan type : Progressive
Bits/(Pixel*Frame) : 0.285
Stream size : 8.56 GiB (98%)
Title : Love Liza bB00J9PNQT4B b1080pB
Writing library : x264 core 148 r2623 d5b2374
Encoding settings : cabac=1 / ref=4 / deblock=1:-1:-1 / analyse=0x3:0x133 / me=umh / subme=9 / psy=1 / psy_rd=1.00:0.15 / mixed_ref=1 / me_range=24 / chroma_me=1 / trellis=2 / 8x8dct=1 / cqm=0 / deadzone=21,11 / fast_pskip=1 / chroma_qp_offset=-3 / threads=32 / lookahead_threads=5 / sliced_threads=0 / nr=150 / decimate=1 / interlaced=0 / bluray_compat=0 / constrained_intra=0 / bframes=8 / b_pyramid=2 / b_adapt=2 / b_bias=0 / direct=3 / weightb=1 / open_gop=0 / weightp=2 / keyint=120 / keyint_min=61 / scenecut=0 / intra_refresh=0 / rc_lookahead=120 / rc=crf / mbtree=1 / crf=18.0 / qcomp=0.60 / qpmin=0 / qpmax=69 / qpstep=4 / vbv_maxrate=15000 / vbv_bufsize=31250 / crf_max=0.0 / nal_hrd=vbr / filler=0 / ip_ratio=1.40 / aq=3:1.00
Default : Yes
Forced : No
Color range : Limited
Color primaries : BT.709
Transfer characteristics : BT.709
Matrix coefficients : BT.709

Audio
ID : 2
Format : E-AC-3
Format/Info : Enhanced AC-3
Commercial name : Dolby Digital Plus
Codec ID : A_EAC3
Duration : 1 h 29 min
Bit rate mode : Constant
Bit rate : 224 kb/s
Channel(s) : 2 channels
Channel layout : L R
Sampling rate : 48.0 kHz
Frame rate : 31.250 FPS (1536 SPF)
Compression mode : Lossy
Stream size : 144 MiB (2%)
Title : English
Language : English
Service kind : Complete Main
Default : Yes
Forced : No

Text
ID : 3
Format : UTF-8
Codec ID : S_TEXT/UTF8
Codec ID/Info : UTF-8 Plain Text
Duration : 1 h 28 min
Bit rate : 42 b/s
Count of elements : 1194
Stream size : 27.5 KiB (0%)
Title : English
Language : English
Default : No
Forced : No

Menu
00:00:00.900 : en:00:00:00.900
00:00:09.203 : en:00:00:09.203
00:03:23.305 : en:00:03:23.305
00:05:05.485 : en:00:05:05.485
00:08:05.557 : en:00:08:05.557
00:09:17.655 : en:00:09:17.655
00:10:55.761 : en:00:10:55.761
00:12:41.955 : en:00:12:41.955
00:15:55.105 : en:00:15:55.105
00:17:33.118 : en:00:17:33.118
00:19:39.126 : en:00:19:39.126
00:21:02.133 : en:00:21:02.133
00:22:13.155 : en:00:22:13.155
00:25:48.171 : en:00:25:48.171
00:28:28.187 : en:00:28:28.187
00:31:06.203 : en:00:31:06.203
00:33:50.224 : en:00:33:50.224
00:37:18.238 : en:00:37:18.238
00:39:37.245 : en:00:39:37.245
00:40:53.258 : en:00:40:53.258
00:42:56.266 : en:00:42:56.266
00:44:19.281 : en:00:44:19.281
00:46:47.288 : en:00:46:47.288
00:47:55.318 : en:00:47:55.318
00:52:58.329 : en:00:52:58.329
00:54:48.348 : en:00:54:48.348
00:58:04.365 : en:00:58:04.365
01:00:54.384 : en:01:00:54.384
01:04:04.391 : en:01:04:04.391
01:05:07.407 : en:01:05:07.407
01:07:52.418 : en:01:07:52.418
01:09:40.425 : en:01:09:40.425
01:10:49.434 : en:01:10:49.434
01:12:20.443 : en:01:12:20.443
01:13:48.459 : en:01:13:48.459
01:16:29.476 : en:01:16:29.476
01:19:18.492 : en:01:19:18.492
01:21:59.520 : en:01:21:59.520
01:26:35.539 : en:01:26:35.539





1 個附件 售價 大小 下載 時間

Love.Liza.2002.1080p.AMZN.WEBRip.DDP2.0.x264-monkee.torrent 0 金幣 87.58K 35 次 1小時前

#1樓
發帖時間:2019-10-12 06:50:51   |   回復數:0
游客組