conanlcg
超級版主

[2010] [其他] [其他] [WEB-1080P] 反斗高比3D Little.Gobie.2010.1080p.AMZN.WEBRip.DDP5.1.x264-NTb 5.48GB

-->

帖子完整標題:反斗高比3D Little.Gobie.2010.1080p.AMZN.WEBRip.DDP5.1.x264-NTb 5.48GB




◎譯  名 Little Gobie
◎片  名 反斗高比3D
◎年  代 2010
◎產  地 中國香港
◎類  別 動畫
◎語  言 粵語
◎上映日期 2010-12-11
◎IMDb評分 2.9/10 from 44 users
◎IMDb鏈接 https://www.imdb.com/title/tt1641398
◎豆瓣評分 0/10 from 0 users
◎豆瓣鏈接 https://movie.douban.com/subject/5399072/
◎片  長 87分鐘
◎導  演 鄧東明Tony Tang

◎標  簽 香港制造 | 動畫 | film

◎簡  介

  故事講述主角小鹿高比尋找聖誕老人的故事。小鹿高比的寵物BEBE因高比任性的決定而在一次滑冰意外中受重傷。高比和他另一隻寵物KUMA為了使BEBE復完而踏上到聖誕城尋找聖誕老人的征途。往聖誕城的路途上,高比和KUMA遇上一位也正在前往聖誕城的古怪老伯OLD NIC。命運把要在平安夜前到達目的地的他們連繫在一起。在兇險的旅途中,他們憑著彼此的幫助成功度過多個的難關,如惡犬農夫的追捕,在巨龜工廠做臨時工,爬上沒有盡頭的梯級,追捕冬甩城的仙子,熱氣球之旅,以及對付禮物城城主。
  究竟小鹿高比能否在聖誕節來臨之前找到聖誕老人,得到救回BEBE的願望呢?
Video
ID : 1
Format : AVC
Format/Info : Advanced Video Codec
Format profile : [email protected]
Format settings : CABAC / 4 Ref Frames
Format settings, CABAC : Yes
Format settings, Reference frames : 4 frames
Codec ID : V_MPEG4/ISO/AVC
Duration : 1 h 27 min
Bit rate mode : Variable
Bit rate : 8 201 kb/s
Maximum bit rate : 15.0 Mb/s
Width : 1 920 pixels
Height : 1 080 pixels
Display aspect ratio : 16:9
Frame rate mode : Constant
Frame rate : 23.976 (24000/1001) FPS
Color space : YUV
Chroma subsampling : 4:2:0
Bit depth : 8 bits
Scan type : Progressive
Bits/(Pixel*Frame) : 0.165
Stream size : 4.98 GiB (91%)
Writing library : x264 core 148 r2623 d5b2374
Encoding settings : cabac=1 / ref=4 / deblock=1:-1:-1 / analyse=0x3:0x133 / me=umh / subme=9 / psy=1 / psy_rd=1.00:0.15 / mixed_ref=1 / me_range=24 / chroma_me=1 / trellis=2 / 8x8dct=1 / cqm=0 / deadzone=21,11 / fast_pskip=1 / chroma_qp_offset=-3 / threads=34 / lookahead_threads=5 / sliced_threads=0 / nr=150 / decimate=1 / interlaced=0 / bluray_compat=0 / constrained_intra=0 / bframes=8 / b_pyramid=2 / b_adapt=2 / b_bias=0 / direct=3 / weightb=1 / open_gop=0 / weightp=2 / keyint=120 / keyint_min=61 / scenecut=0 / intra_refresh=0 / rc_lookahead=120 / rc=crf / mbtree=1 / crf=18.0 / qcomp=0.60 / qpmin=0 / qpmax=69 / qpstep=4 / vbv_maxrate=15000 / vbv_bufsize=31250 / crf_max=0.0 / nal_hrd=vbr / filler=0 / ip_ratio=1.40 / aq=3:1.00
Default : Yes
Forced : No
Color range : Limited
Color primaries : BT.709
Transfer characteristics : BT.709
Matrix coefficients : BT.709

Audio
ID : 2
Format : E-AC-3
Format/Info : Enhanced AC-3
Commercial name : Dolby Digital Plus
Codec ID : A_EAC3
Duration : 1 h 27 min
Bit rate mode : Constant
Bit rate : 640 kb/s
Channel(s) : 6 channels
Channel layout : L R C LFE Ls Rs
Sampling rate : 48.0 kHz
Frame rate : 31.250 FPS (1536 SPF)
Compression mode : Lossy
Stream size : 398 MiB (7%)
Language : English
Service kind : Complete Main
Default : Yes
Forced : No

Text
ID : 3
Format : UTF-8
Codec ID : S_TEXT/UTF8
Codec ID/Info : UTF-8 Plain Text
Language : English
Default : No
Forced : No





1 個附件 售價 大小 下載 時間

Little.Gobie.2010.1080p.AMZN.WEBRip.DDP5.1.x264-NTb.torrent 0 金幣 55.43K 42 次 1小時前

#1樓
發帖時間:2019-10-12 06:54:53   |   回復數:0
游客組