conanlcg
超級版主

[更 早] [歐美] [喜劇] [WEB-1080P] 蹺家大作戰/逃離圣誕 Christmas.with.the.Kranks.2004.1080p.AMZN.WEBRip.DDP5.1.x264-NTb 9.47

-->

帖子完整標題:蹺家大作戰/逃離圣誕 Christmas.with.the.Kranks.2004.1080p.AMZN.WEBRip.DDP5.1.x264-NTb 9.47GB




◎譯  名 蹺家大作戰 / 逃離圣誕
◎片  名 Christmas with the Kranks
◎年  代 2004
◎產  地 美國
◎類  別 喜劇 / 家庭
◎語  言 英語 / 西班牙語
◎上映日期 2004-11-24
◎IMDb評分 5.3/10 from 37379 users
◎IMDb鏈接 https://www.imdb.com/title/tt0388419
◎豆瓣評分 6.4/10 from 437 users
◎豆瓣鏈接 https://movie.douban.com/subject/1308951/
◎片  長 99 分鐘
◎導  演 Joe Roth
◎編  劇 Chris Columbus
◎主  演 Tim Allen
      Jamie Lee Curtis
      Dan Aykroyd


◎標  簽 喜劇 | 美國 | 圣誕 | 美國電影 | 2004 | 溫暖 | 親情 | 電影

◎簡  介

  影片改編自當今美國著名小說家約翰·格里沙姆(John Grisham)的暢銷作品《逃離圣誕》(Skipping Christmas)。故事描寫一對美國夫婦,路德·克拉克(蒂姆o艾倫飾)與諾拉(杰米·李·柯蒂斯飾)在圣誕節前夕作出了一個“驚人”的決定--今年不過圣誕節。他們打算在圣誕期間去加勒比海旅游。這樣一來,不但能痛痛快快地享受久違的二人世界,同時還能節省一年一度“無聊透頂”的節日開支。
  
   然而,此舉立刻招致親朋好友甚至鄰居們的非議。一個小小的改變竟然引來如此巨大的社會反響完全出乎路德和諾拉的預料。他們不得不面對來自各方面的壓力,其間自然發生了許多不可思議的笑料。就在克拉克夫婦迷惑之際,他們的寶貝女兒布萊爾(茱麗·貢澤羅飾)突然告知父母她將回家過圣誕節……一心一意向往逃離圣誕的路德和諾拉不得不再次面對“郁悶的”節日。
Video
ID : 1
Format : AVC
Format/Info : Advanced Video Codec
Format profile : [email protected]
Format settings : CABAC / 4 Ref Frames
Format settings, CABAC : Yes
Format settings, Reference frames : 4 frames
Codec ID : V_MPEG4/ISO/AVC
Duration : 1 h 38 min
Bit rate mode : Variable
Bit rate : 12.8 Mb/s
Maximum bit rate : 15.0 Mb/s
Width : 1 920 pixels
Height : 1 080 pixels
Display aspect ratio : 16:9
Frame rate mode : Constant
Frame rate : 23.976 (24000/1001) FPS
Color space : YUV
Chroma subsampling : 4:2:0
Bit depth : 8 bits
Scan type : Progressive
Bits/(Pixel*Frame) : 0.258
Stream size : 8.84 GiB (93%)
Writing library : x264 core 148 r2623 d5b2374
Encoding settings : cabac=1 / ref=4 / deblock=1:-1:-1 / analyse=0x3:0x133 / me=umh / subme=9 / psy=1 / psy_rd=1.00:0.15 / mixed_ref=1 / me_range=24 / chroma_me=1 / trellis=2 / 8x8dct=1 / cqm=0 / deadzone=21,11 / fast_pskip=1 / chroma_qp_offset=-3 / threads=34 / lookahead_threads=5 / sliced_threads=0 / nr=150 / decimate=1 / interlaced=0 / bluray_compat=0 / constrained_intra=0 / bframes=8 / b_pyramid=2 / b_adapt=2 / b_bias=0 / direct=3 / weightb=1 / open_gop=0 / weightp=2 / keyint=120 / keyint_min=61 / scenecut=0 / intra_refresh=0 / rc_lookahead=120 / rc=crf / mbtree=1 / crf=18.0 / qcomp=0.60 / qpmin=0 / qpmax=69 / qpstep=4 / vbv_maxrate=15000 / vbv_bufsize=31250 / crf_max=0.0 / nal_hrd=vbr / filler=0 / ip_ratio=1.40 / aq=3:1.00
Default : Yes
Forced : No
Color range : Limited
Color primaries : BT.709
Transfer characteristics : BT.709
Matrix coefficients : BT.709

Audio
ID : 2
Format : E-AC-3
Format/Info : Enhanced AC-3
Commercial name : Dolby Digital Plus
Codec ID : A_EAC3
Duration : 1 h 38 min
Bit rate mode : Constant
Bit rate : 640 kb/s
Channel(s) : 6 channels
Channel layout : L R C LFE Ls Rs
Sampling rate : 48.0 kHz
Frame rate : 31.250 FPS (1536 SPF)
Compression mode : Lossy
Stream size : 453 MiB (5%)
Language : English
Service kind : Complete Main
Default : Yes
Forced : No





1 個附件 售價 大小 下載 時間

Christmas.with.the.Kranks.2004.1080p.AMZN.WEBRip.DDP5.1.x264-NTb.torrent 0 金幣 95.37K 35 次 1小時前

#1樓
發帖時間:2019-10-12 07:06:58   |   回復數:0
游客組