conanlcg
超級版主

[更 早] [其他] [劇情] [WEB-1080P] 寶云尼車站/寶華尼車站 Bhowani.Junction.1956.1080p.AMZN.WEBRip.DDP2.0.x264-SbR 8.61GB

-->

帖子完整標題:寶云尼車站/寶華尼車站 Bhowani.Junction.1956.1080p.AMZN.WEBRip.DDP2.0.x264-SbR 8.61GB




◎譯  名 寶云尼車站 / 寶華尼車站(臺)
◎片  名 Bhowani Junction
◎年  代 1956
◎產  地 美國 / 英國
◎類  別 劇情 / 愛情 / 冒險
◎語  言 英語
◎上映日期 1956-05-01
◎IMDb評分 6.4/10 from 1525 users
◎IMDb鏈接 https://www.imdb.com/title/tt0049007
◎豆瓣評分 0/10 from 0 users
◎豆瓣鏈接 https://movie.douban.com/subject/1963080/
◎片  長 110 分鐘
◎導  演 喬治·庫克 George Cukor
◎編  劇 索恩亞· 萊維恩 Sonya Levien / 伊凡·莫弗特 Ivan Moffat
◎主  演 Abraham Sofaer


◎標  簽 美國 | 1950s | GeorgeCukor | 愛情 | 喬治·庫克 | AvaGardner | 劇情 | 冒險

◎簡  介

  The year is 1947, the British are on the verge of finally leaving India. Amongst the few who are sorry to see the British leave are the Anglo-Indians, half British and half Indian, for they are going to miss the patronage of their white cousins, the job reservations, and the important status and positions they currently hold. The British, quite frankly, do not think well of Anglo-Indians, nor do the Indians. Victoria Jones is one such Anglo-Indian, a WAC in the British Army, her father a railway engine driver, and her mom a housewife. She is close to another Anglo-Indian, Patrick Taylor, but changes her mind about him as he harbors deep hatred for the Indians. She witnesses Col. Rodney Savage instruct his soldiers to pour filthy water and garbage at the hands of untouchables on high-caste men and women who are protesting by laying down on the railway tracks to prevent trains from moving. Repulsed and shocked at this, she turns to Ranjit Singh Kassi, a Sikh, and longs to be Indian. She...
Video
ID : 1
Format : AVC
Format/Info : Advanced Video Codec
Format profile : [email protected]
Format settings : CABAC / 4 Ref Frames
Format settings, CABAC : Yes
Format settings, Reference frames : 4 frames
Codec ID : V_MPEG4/ISO/AVC
Duration : 1 h 49 min
Bit rate mode : Variable
Bit rate : 10.8 Mb/s
Maximum bit rate : 15.0 Mb/s
Width : 1 920 pixels
Height : 1 080 pixels
Display aspect ratio : 16:9
Frame rate mode : Constant
Frame rate : 23.976 (24000/1001) FPS
Color space : YUV
Chroma subsampling : 4:2:0
Bit depth : 8 bits
Scan type : Progressive
Bits/(Pixel*Frame) : 0.217
Stream size : 8.27 GiB (96%)
Writing library : x264 core 148 r2623 d5b2374
Encoding settings : cabac=1 / ref=4 / deblock=1:-1:-1 / analyse=0x3:0x133 / me=umh / subme=9 / psy=1 / psy_rd=1.00:0.15 / mixed_ref=1 / me_range=24 / chroma_me=1 / trellis=2 / 8x8dct=1 / cqm=0 / deadzone=21,11 / fast_pskip=1 / chroma_qp_offset=-3 / threads=34 / lookahead_threads=5 / sliced_threads=0 / nr=150 / decimate=1 / interlaced=0 / bluray_compat=0 / constrained_intra=0 / bframes=8 / b_pyramid=2 / b_adapt=2 / b_bias=0 / direct=3 / weightb=1 / open_gop=0 / weightp=2 / keyint=120 / keyint_min=61 / scenecut=0 / intra_refresh=0 / rc_lookahead=120 / rc=crf / mbtree=1 / crf=18.0 / qcomp=0.60 / qpmin=0 / qpmax=69 / qpstep=4 / vbv_maxrate=15000 / vbv_bufsize=31250 / crf_max=0.0 / nal_hrd=vbr / filler=0 / ip_ratio=1.40 / aq=3:1.00
Language : English
Default : Yes
Forced : No
Color range : Limited
Color primaries : BT.709
Transfer characteristics : BT.709
Matrix coefficients : BT.709

Audio
ID : 2
Format : E-AC-3
Format/Info : Enhanced AC-3
Commercial name : Dolby Digital Plus
Codec ID : A_EAC3
Duration : 1 h 49 min
Bit rate mode : Constant
Bit rate : 224 kb/s
Channel(s) : 2 channels
Channel layout : L R
Sampling rate : 48.0 kHz
Frame rate : 31.250 FPS (1536 SPF)
Compression mode : Lossy
Stream size : 176 MiB (2%)
Language : English
Service kind : Complete Main
Default : Yes
Forced : No

Text #1
ID : 3
Format : UTF-8
Codec ID : S_TEXT/UTF8
Codec ID/Info : UTF-8 Plain Text
Language : English
Default : No
Forced : No

Text #2
ID : 4
Format : UTF-8
Codec ID : S_TEXT/UTF8
Codec ID/Info : UTF-8 Plain Text
Title : SDH
Language : English
Default : No
Forced : No





1 個附件 售價 大小 下載 時間

Bhowani.Junction.1956.1080p.AMZN.WEBRip.DDP2.0.x264-SbR.torrent 0 金幣 86.71K 42 次 1小時前

#1樓
發帖時間:2019-10-12 07:11:04   |   回復數:0
游客組