conanlcg
超級版主

[更 早] [其他] [劇情] [WEB-1080P] 一無所有/折翼天使 All.Or.Nothing.2002.1080p.AMZN.WEBRip.DDP5.1.x264-monkee 8.73GB

-->

帖子完整標題:一無所有/折翼天使 All.Or.Nothing.2002.1080p.AMZN.WEBRip.DDP5.1.x264-monkee 8.73GB




◎譯  名 一無所有 / 折翼天使
◎片  名 All or Nothing
◎年  代 2002
◎產  地 英國 / 法國
◎類  別 劇情
◎語  言 英語 / 阿拉伯語 / 法語
◎上映日期 2002-09-09
◎IMDb評分 7.5/10 from 9347 users
◎IMDb鏈接 https://www.imdb.com/title/tt0286261
◎豆瓣評分 8.1/10 from 973 users
◎豆瓣鏈接 https://movie.douban.com/subject/1303680/
◎片  長 128分鐘
◎導  演 Mike Leigh
◎編  劇 Mike Leigh
◎主  演 Timothy Spall
      Lesley Manville
      Alison Garland
      James Corden
      Sally Hawkins


◎標  簽 英國 | 邁克·李 | 英國電影 | MikeLeigh | 劇情 | 2002 | 法國 | Mike_Leigh

◎簡  介

  在漫長而又乏味的婚姻生活中,佩妮(萊絲利·曼維爾 Lesley Manville 飾)感到自己的人生走入了谷底,收銀員的工作讓她日復一日重復著同樣的動作,身為出租車司機的丈夫菲爾(蒂莫西·斯波 Timothy Spall 飾)則早就已經對妻子的喜怒哀樂無動于衷。女兒瑞秋(Alison Garland 飾)是個替老人打掃衛生的保姆,兒子羅伊(詹姆斯·柯登 James Corden 飾)失業閑賦在家,未來中佩妮覺得自己看不到任何的希望。
  羅伊的突然病倒使整個家庭陷入了恐慌,本以為對家庭已經毫無感情的佩妮這才發現兒子的存在對自己來說是多么的重要。在對羅伊的照顧和看護之中,佩妮和菲爾逐漸的找回了昔日的激情,家庭的裂縫開始緩慢愈合。

◎獲獎情況

  第55屆戛納電影節(2002)
  主競賽單元 金棕櫚獎(提名) 邁克·李
Video
ID : 1
Format : AVC
Format/Info : Advanced Video Codec
Format profile : [email protected]
Format settings : CABAC / 4 Ref Frames
Format settings, CABAC : Yes
Format settings, Reference frames : 4 frames
Codec ID : V_MPEG4/ISO/AVC
Duration : 2 h 8 min
Bit rate mode : Variable
Bit rate : 9 094 kb/s
Maximum bit rate : 15.0 Mb/s
Width : 1 920 pixels
Height : 1 040 pixels
Display aspect ratio : 1.85:1
Frame rate mode : Constant
Frame rate : 23.976 (24000/1001) FPS
Color space : YUV
Chroma subsampling : 4:2:0
Bit depth : 8 bits
Scan type : Progressive
Bits/(Pixel*Frame) : 0.190
Stream size : 8.15 GiB (93%)
Default : Yes
Forced : No
Color range : Limited
Color primaries : BT.709
Transfer characteristics : BT.709
Matrix coefficients : BT.709

Audio
ID : 2
Format : E-AC-3
Format/Info : Enhanced AC-3
Commercial name : Dolby Digital Plus
Codec ID : A_EAC3
Duration : 2 h 8 min
Bit rate mode : Constant
Bit rate : 640 kb/s
Channel(s) : 6 channels
Channel layout : L R C LFE Ls Rs
Sampling rate : 48.0 kHz
Frame rate : 31.250 FPS (1536 SPF)
Compression mode : Lossy
Stream size : 588 MiB (7%)
Language : English
Service kind : Complete Main
Default : Yes
Forced : No

Text
ID : 3
Format : UTF-8
Codec ID : S_TEXT/UTF8
Codec ID/Info : UTF-8 Plain Text
Duration : 2 h 5 min
Bit rate : 52 b/s
Count of elements : 2135
Stream size : 48.1 KiB (0%)
Language : English
Default : No
Forced : No

Menu
00:00:00.220 : en:Studio Logos
00:00:22.437 : en:Rachel Cleans the Floors, Opening Credits; Multiple Locations
00:07:17.554 : en:Penny Returns Home; Multiple Locations
00:09:14.725 : en:Phil Shares a Philosophy over a Beer with Ron; Multiple Locations
00:12:05.102 : en:Phil Brings Home Bread; Bassett Household
00:16:55.133 : en:Samantha Comes Home Starving; Multiple Locations
00:22:05.171 : en:Phil Looks for Some Change; Bassett Household
00:28:32.178 : en:Rachel Cleans at Work; Nursing Home
00:29:37.192 : en:Ron Pays His Mechanic; Multiple Locations
00:32:02.209 : en:Sam Asks about Rachel's Night; Multiple Locations
00:34:51.230 : en:Phil Drives His Taxi; Multiple Locations
00:38:23.253 : en:Donna and Jason Spend Time Together; Donna's Room
00:42:14.263 : en:Penny Hangs Out with Her Friends; Bar
00:43:49.276 : en:Jason Reacts Explosively to Donna's News; Donna's Home
00:45:57.301 : en:Carol Compliments Maureen's Dress; Multiple Locations
00:50:14.317 : en:Samantha and Craig Flirt; Outside the Apartment Building
00:52:48.329 : en:Phil Finishes His Night Shift; Multiple Locations
00:54:50.335 : en:Rachel Checks on Martha; Nursing Home
00:55:54.379 : en:Maureen Tries to Help Donna; Multiple Locations
01:03:14.416 : en:Another Depressing Day; Multiple Locations
01:09:15.464 : en:Rory Has a Health Scare; Multiple Locations
01:17:23.487 : en:Rory Is Rushed to the Hospital; Multiple Locations
01:21:11.541 : en:Rory's Health Is Diagnosed; Multiple Locations
01:30:12.572 : en:Phil Learns about Rory's Hospitalization; Multiple Locations
01:35:17.609 : en:Phil Finally Arrives at the Hospital; Hospital
01:41:25.679 : en:Penny Discusses Rory's Health; Multiple Locations
01:53:11.692 : en:Penny Tries to Console Rachel; Bassett Household
01:55:21.722 : en:Penny and Phil Try to Reconcile; Bassett Household
02:00:24.751 : en:The Bassetts Visit Rory; Hospital
02:05:06.770 : en:End Credits





1 個附件 售價 大小 下載 時間

All.Or.Nothing.2002.1080p.AMZN.WEBRip.DDP5.1.x264-monkee.torrent 0 金幣 87.88K 49 次 1小時前

#1樓
發帖時間:2019-10-12 07:14:50   |   回復數:0
游客組