conanlcg
超級版主

[2012] [歐美] [喜劇] [WEB-1080P] 斯人似我/愛情你我他 Somebody.Up.There.Likes.Me.2012.1080p.WEBRip.x264-RARBG 1.43GB

-->

帖子完整標題:斯人似我/愛情你我他 Somebody.Up.There.Likes.Me.2012.1080p.WEBRip.x264-RARBG 1.43GB




◎譯  名 斯人似我 / 愛情你我他
◎片  名 Somebody Up There Likes Me
◎年  代 2012
◎產  地 美國
◎類  別 喜劇
◎語  言 英語
◎上映日期 2013-01-23
◎IMDb評分 5.8/10 from 1402 users
◎IMDb鏈接 http://www.imdb.com/title/tt2014346
◎豆瓣評分 0/10 from 0 users
◎豆瓣鏈接 https://movie.douban.com/subject/10560156/
◎片  長 75分鐘
◎導  演 Bob Byington
◎編  劇 Bob Byington
◎主  演 Keith Poulson
      尼克·奧弗曼 Nick Offerman
      杰絲·威克斯勒 Jess Weixler


◎標  簽 美國 | 喜劇 | 獨立電影 | 獨立 | NickOfferman | 美國 | 美國電影 | 壬辰

◎簡  介

  婚姻失敗的理查德(約翰?豪克斯 飾)與藝術家克里斯蒂娜(米蘭達?朱萊 飾)被命運牽扯到了一起。盡管理查德因為婚姻的失敗變得性格怪異,難以相處,另一方面兒子們的存在成為他努力生活的動力。克里斯蒂娜則有自己的藝術夢想,她是個前衛、天馬行空的人,她希望自己的作品能被眾人認同。兩人的背景大相徑庭,理查德還是被迷人的克里斯蒂娜深深吸引了,可是當他們走在一起后需要共同面對理查德的兒子們——14歲的彼得與7歲的羅比。這兩名孩子都有著自己不為人知的一面,理查德極力了解自己的兒子們,成為兒子的榜樣,但總是不得要領。@www.youtu9.com

◎獲獎情況

  第65屆洛迦諾國際電影節(2012)
  金豹獎(提名) Bob Byington
  評審團特別獎 Bob Byington
Video
ID : 1
Format : AVC
Format/Info : Advanced Video Codec
Format profile : [email protected]
Format settings : CABAC / 4 Ref Frames
Format settings, CABAC : Yes
Format settings, Reference frames : 4 frames
Codec ID : avc1
Codec ID/Info : Advanced Video Coding
Duration : 1 h 14 min
Bit rate : 2 500 kb/s
Width : 1 920 pixels
Height : 1 080 pixels
Display aspect ratio : 16:9
Frame rate mode : Constant
Frame rate : 23.976 (23976/1000) FPS
Color space : YUV
Chroma subsampling : 4:2:0
Bit depth : 8 bits
Scan type : Progressive
Bits/(Pixel*Frame) : 0.050
Stream size : 1.31 GiB (92%)
Writing library : x264 core 152 r2851M ba24899
Encoding settings : cabac=1 / ref=4 / deblock=1:-1:-1 / analyse=0x3:0x113 / me=umh / subme=9 / psy=1 / psy_rd=1.00:0.15 / mixed_ref=1 / me_range=24 / chroma_me=1 / trellis=2 / 8x8dct=1 / cqm=0 / deadzone=21,11 / fast_pskip=1 / chroma_qp_offset=-3 / threads=16 / lookahead_threads=4 / sliced_threads=0 / nr=0 / decimate=1 / interlaced=0 / bluray_compat=0 / constrained_intra=0 / bframes=3 / b_pyramid=2 / b_adapt=2 / b_bias=0 / direct=3 / weightb=1 / open_gop=0 / weightp=2 / keyint=250 / keyint_min=25 / scenecut=40 / intra_refresh=0 / rc_lookahead=50 / rc=2pass / mbtree=1 / bitrate=2500 / ratetol=1.0 / qcomp=0.60 / qpmin=0 / qpmax=69 / qpstep=4 / cplxblur=20.0 / qblur=0.5 / vbv_maxrate=31250 / vbv_bufsize=31250 / nal_hrd=none / filler=0 / ip_ratio=1.40 / aq=3:1.00
Encoded date : UTC 2019-10-11 19:07:42
Tagged date : UTC 2019-10-11 19:07:42
Codec configuration box : avcC

Audio
ID : 2
Format : AAC LC
Format/Info : Advanced Audio Codec Low Complexity
Codec ID : mp4a-40-2
Duration : 1 h 14 min
Bit rate mode : Constant
Bit rate : 224 kb/s
Channel(s) : 2 channels
Channel layout : L R
Sampling rate : 48.0 kHz
Frame rate : 46.875 FPS (1024 SPF)
Compression mode : Lossy
Stream size : 120 MiB (8%)
Language : English
Default : Yes
Alternate group : 1
Encoded date : UTC 2019-10-11 19:07:42
Tagged date : UTC 2019-10-11 19:07:42





1 個附件 售價 大小 下載 時間

Somebody.Up.There.Likes.Me.2012.1080p.WEBRip.x264-RARBG.torrent 0 金幣 14.91K 35 次 45分鐘前

#1樓
發帖時間:2019-10-12 07:28:41   |   回復數:0
游客組