conanlcg
超級版主

[2019] [其他] [喜劇] [HDTV/HDrip] 憤怒的小鳥2 The.Angry.Birds.Movie.2.2019.1080p.KORSUB.HDRip.x264.AAC2.0-STUTTERSHIT 3

-->

帖子完整標題:憤怒的小鳥2 The.Angry.Birds.Movie.2.2019.1080p.KORSUB.HDRip.x264.AAC2.0-STUTTERSHIT 3.13GB




◎譯  名 憤怒的小鳥2 / Angry Birds 2 / 憤怒的小鳥大電影2 / 憤怒鳥大電影2(港) / 憤怒鳥玩電影2(臺)
◎片  名 The Angry Birds Movie 2
◎年  代 2019
◎產  地 芬蘭 / 美國
◎類  別 喜劇 / 動畫 / 冒險
◎語  言 英語
◎上映日期 2019-08-14(美國) / 2019-08-16(中國大陸)
◎IMDb評分 6.5/10 from 4645 users
◎IMDb鏈接 https://www.imdb.com/title/tt6095472
◎豆瓣評分 7.2/10 from 15287 users
◎豆瓣鏈接 https://movie.douban.com/subject/26863060/
◎片  長 96分鐘
◎導  演 圖魯普·范·奧爾曼 Thurop Van Orman
◎編  劇 彼得·阿克曼 Peter Ackerman
◎主  演 杰森·蘇戴奇斯 Jason Sudeikis
      比爾·哈德爾 Bill Hader
      喬什·加德 Josh Gad
      丹尼·麥克布萊德 Danny McBride
      彼特·丁拉基 Peter Dinklage
      妮琪·米娜 Nicki Minaj
      斯特林·K·布朗 Sterling K. Brown
      萊斯莉·瓊斯 Leslie Jones
      奧卡菲娜 Awkwafina
      蕾切爾·布魯姆 Rachel Bloom
      扎克·伍茲 Zach Woods
      歐赫尼奧·德爾維斯 Eugenio Derbez
      里爾·萊爾·哈瓦瑞 Lil Rel Howery
      德芙·卡梅隆 Dove Cameron
      貝克·班尼特 Beck Bennett
      布魯克琳·普林斯 Brooklynn Prince
      阿爾瑪·瓦薩諾 Alma Varsano
      菲絲·瑪格麗特·基德曼-厄本 Faith Margaret Kidman-Urban
      桑迪·蘿絲·厄本 Sunday Rose Urban
      吉妮西絲·坦尼翁 Genesis Tennon


◎標  簽 動畫 | 喜劇 | 搞笑 | 游戲改編 | 2019 | 美國 | 芬蘭 | 經典手游

◎簡  介

  十年“歡喜冤家”豬鳥依舊如往常一樣“互相拆臺”。然而,“不速之客”發射冰球襲擊了小鳥島和豬豬島,令雙方不得不放下芥蒂,小鳥島昔日英雄胖紅聯合小鳥伙伴們與曾經的對手“搗蛋豬”雷納德一行組建了臨時聯盟,他們將前往全新冰封島嶼上阻止神秘反派的滅世計劃。
Video
ID : 1
Format : AVC
Format/Info : Advanced Video Codec
Format profile : [email protected]
Format settings : CABAC / 4 Ref Frames
Format settings, CABAC : Yes
Format settings, Reference frames : 4 frames
Codec ID : avc1
Codec ID/Info : Advanced Video Coding
Duration : 1 h 31 min
Bit rate : 4 700 kb/s
Width : 1 920 pixels
Height : 1 080 pixels
Display aspect ratio : 16:9
Frame rate mode : Constant
Frame rate : 30.000 FPS
Color space : YUV
Chroma subsampling : 4:2:0
Bit depth : 8 bits
Scan type : Progressive
Bits/(Pixel*Frame) : 0.076
Stream size : 2.96 GiB (95%)
Title : The.Angry.Birds.Movie.2.2019.1080p.KORSUB.HDRip.x264.AAC2.0-STUTTERSHIT
Writing library : x264 core 148 r2748 97eaef2
Encoding settings : cabac=1 / ref=4 / deblock=1:0:0 / analyse=0x3:0x113 / me=umh / subme=9 / psy=1 / psy_rd=1.00:0.00 / mixed_ref=1 / me_range=16 / chroma_me=1 / trellis=2 / 8x8dct=1 / cqm=0 / deadzone=21,11 / fast_pskip=1 / chroma_qp_offset=-2 / threads=72 / lookahead_threads=6 / sliced_threads=0 / nr=0 / decimate=1 / interlaced=0 / bluray_compat=0 / constrained_intra=0 / bframes=3 / b_pyramid=2 / b_adapt=2 / b_bias=0 / direct=3 / weightb=1 / open_gop=0 / weightp=2 / keyint=250 / keyint_min=25 / scenecut=40 / intra_refresh=0 / rc_lookahead=50 / rc=abr / mbtree=1 / bitrate=4700 / ratetol=1.0 / qcomp=0.60 / qpmin=0 / qpmax=69 / qpstep=4 / ip_ratio=1.40 / aq=1:1.00
Codec configuration box : avcC

Audio
ID : 2
Format : AAC LC
Format/Info : Advanced Audio Codec Low Complexity
Codec ID : mp4a-40-2
Duration : 1 h 31 min
Duration_LastFrame : -11 ms
Bit rate mode : Constant
Bit rate : 256 kb/s
Channel(s) : 2 channels
Channel layout : L R
Sampling rate : 48.0 kHz
Frame rate : 46.875 FPS (1024 SPF)
Compression mode : Lossy
Stream size : 168 MiB (5%)
Title : The.Angry.Birds.Movie.2.2019.1080p.KORSUB.HDRip.x264.AAC2.0-STUTTERSHIT
Language : English
Default : Yes
Alternate group : 1





1 個附件 售價 大小 下載 時間

The.Angry.Birds.Movie.2.2019.1080p.KORSUB.HDRip.x264.AAC2.0-STUTTERSHIT.torrent 0 金幣 31.83K 336 次 37分鐘前

#1樓
發帖時間:2019-10-12 07:37:20   |   回復數:0
游客組