conanlcg
超級版主

[更 早] [歐美] [劇情] [BD-720P] 疤面煞星/疤臉人 Scarface.1983.REMASTERED.720p.BluRay.X264-AMIABLE 10.95GB

-->

帖子完整標題:疤面煞星/疤臉人 Scarface.1983.REMASTERED.720p.BluRay.X264-AMIABLE 10.95GB




◎譯  名 疤面煞星 / 疤臉人 / 疤面人
◎片  名 Scarface
◎年  代 1983
◎產  地 美國
◎類  別 劇情 / 驚悚 / 犯罪
◎語  言 英語 / 西班牙語
◎上映日期 1983-12-01
◎IMDb評分 8.3/10 from 678058 users
◎IMDb鏈接 https://www.imdb.com/title/tt0086250
◎豆瓣評分 8.3/10 from 44839 users
◎豆瓣鏈接 https://movie.douban.com/subject/1292065/
◎片  長 170 分鐘
◎導  演 布萊恩·德·帕爾瑪 Brian De Palma
◎編  劇 奧利佛·斯通 Oliver Stone
◎主  演 阿爾·帕西諾 Al Pacino
      斯蒂文·鮑爾 Steven Bauer
      米歇爾·菲佛 Michelle Pfeiffer
      瑪麗·伊麗莎白·馬斯特蘭托尼奧 Mary Elizabeth Mastrantonio
      羅伯特·勞吉亞 Robert Loggia


◎標  簽 黑幫 | 阿爾·帕西諾 | 犯罪 | 美國 | AlPacino | 暴力 | 經典 | 美國電影

◎簡  介

  古巴難民青年托尼(阿爾?帕西諾 Al Pacino 飾)逃難來到了美國的邁阿密,成了一個典型的天不怕、地不怕的美國街頭小混混。托尼在當地的一個毒梟手下干活,因其心狠手辣、膽大心細,十分出色地幫老大完成了幾件任務而迅速受到賞識,成為毒梟的第一得力助手。
  然而托尼并沒有就此滿足,他先是從委內瑞拉的毒梟那里接下了大單子,接著將自己的眼中釘一顆顆除去,勢力不斷擴大。當他的老大感受到威脅時已經太晚了,托尼將老大干掉然后一統了邁阿密毒品市場的天下。
  托尼得勢后他的性格開始變得疑神疑鬼,對周圍的人甚至至親的家人、好兄弟都充滿懷疑。疑心使他逐漸走上了不歸路!
Video
ID : 1
Format : AVC
Format/Info : Advanced Video Codec
Format profile : [email protected]
Format settings : CABAC / 12 Ref Frames
Format settings, CABAC : Yes
Format settings, Reference frames : 12 frames
Codec ID : V_MPEG4/ISO/AVC
Duration : 2 h 49 min
Bit rate : 7 703 kb/s
Width : 1 280 pixels
Height : 544 pixels
Display aspect ratio : 2.35:1
Frame rate mode : Constant
Frame rate : 23.976 (24000/1001) FPS
Color space : YUV
Chroma subsampling : 4:2:0
Bit depth : 8 bits
Scan type : Progressive
Bits/(Pixel*Frame) : 0.461
Stream size : 8.92 GiB (82%)
Writing library : x264 core 158 r2984 3759fcb
Encoding settings : cabac=1 / ref=12 / deblock=1:-3:-3 / analyse=0x3:0x133 / me=umh / subme=10 / psy=1 / psy_rd=1.10:0.00 / mixed_ref=1 / me_range=24 / chroma_me=1 / trellis=2 / 8x8dct=1 / cqm=0 / deadzone=21,11 / fast_pskip=0 / chroma_qp_offset=-2 / threads=17 / lookahead_threads=4 / sliced_threads=0 / nr=0 / decimate=0 / interlaced=0 / bluray_compat=0 / constrained_intra=0 / bframes=10 / b_pyramid=2 / b_adapt=2 / b_bias=0 / direct=3 / weightb=1 / open_gop=0 / weightp=2 / keyint=240 / keyint_min=24 / scenecut=40 / intra_refresh=0 / rc_lookahead=60 / rc=2pass / mbtree=1 / bitrate=7703 / ratetol=1.0 / qcomp=0.60 / qpmin=0 / qpmax=69 / qpstep=4 / cplxblur=20.0 / qblur=0.5 / ip_ratio=1.30 / aq=3:0.70
Default : Yes
Forced : No
Statistics Tags Issue : no_variable_data 1970-01-01 00:00:00 / no_variable_data 2010-02-22 21:41:29
FromStats_BitRate : 7700901
FromStats_Duration : 02:49:53.183000000
FromStats_FrameCount : 244392
FromStats_StreamSize : 9812086856

Audio
ID : 2
Format : DTS
Format/Info : Digital Theater Systems
Codec ID : A_DTS
Duration : 2 h 49 min
Bit rate mode : Constant
Bit rate : 1 509 kb/s
Channel(s) : 6 channels
Channel layout : C L R Ls Rs LFE
Sampling rate : 48.0 kHz
Frame rate : 93.750 FPS (512 SPF)
Bit depth : 24 bits
Compression mode : Lossy
Stream size : 1.79 GiB (16%)
Language : English
Default : Yes
Forced : No
Statistics Tags Issue : no_variable_data 1970-01-01 00:00:00 / no_variable_data 2010-02-22 21:41:29
FromStats_BitRate : 1509000
FromStats_Duration : 02:49:53.184000000
FromStats_FrameCount : 955611
FromStats_StreamSize : 1922689332

Text #1
ID : 3
Format : UTF-8
Codec ID : S_TEXT/UTF8
Codec ID/Info : UTF-8 Plain Text
Language : English
Default : No
Forced : No
Statistics Tags Issue : no_variable_data 1970-01-01 00:00:00 / no_variable_data 2010-02-22 21:41:29
FromStats_BitRate : 57
FromStats_Duration : 02:39:33.147000000
FromStats_FrameCount : 2268
FromStats_StreamSize : 68949

Text #2
ID : 4
Format : UTF-8
Codec ID : S_TEXT/UTF8
Codec ID/Info : UTF-8 Plain Text
Title : SDH
Language : English
Default : No
Forced : No
Statistics Tags Issue : no_variable_data 1970-01-01 00:00:00 / no_variable_data 2010-02-22 21:41:29
FromStats_BitRate : 59
FromStats_Duration : 02:42:17.811000000
FromStats_FrameCount : 2406
FromStats_StreamSize : 72124

Menu
00:00:00.000 : en:Chapter 01
00:08:11.533 : en:Chapter 02
00:10:55.196 : en:Chapter 03
00:13:40.153 : en:Chapter 04
00:15:42.984 : en:Chapter 05
00:20:58.257 : en:Chapter 06
00:29:51.248 : en:Chapter 07
00:33:09.321 : en:Chapter 08
00:34:42.497 : en:Chapter 09
00:43:13.132 : en:Chapter 10
00:46:46.012 : en:Chapter 11
00:50:45.209 : en:Chapter 12
00:59:02.664 : en:Chapter 13
01:04:15.602 : en:Chapter 14
01:08:20.430 : en:Chapter 15
01:12:57.498 : en:Chapter 16
01:17:17.800 : en:Chapter 17
01:23:33.091 : en:Chapter 18
01:28:48.323 : en:Chapter 19
01:33:44.244 : en:Chapter 20
01:43:31.497 : en:Chapter 21
01:47:01.707 : en:Chapter 22
01:51:48.410 : en:Chapter 23
01:57:19.991 : en:Chapter 24
02:02:43.106 : en:Chapter 25
02:07:08.204 : en:Chapter 26
02:13:58.405 : en:Chapter 27
02:16:04.448 : en:Chapter 28
02:21:46.081 : en:Chapter 29
02:24:22.779 : en:Chapter 30
02:30:37.862 : en:Chapter 31
02:35:14.889 : en:Chapter 32
02:37:33.069 : en:Chapter 33
02:40:04.303 : en:Chapter 34
02:43:21.000 : en:Chapter 35





1 個附件 售價 大小 下載 時間

Scarface.1983.REMASTERED.720p.BluRay.X264-AMIABLE.torrent 0 金幣 55.68K 700 次 2月前

#1樓
發帖時間:2019-10-12 08:15:43   |   回復數:1
911degrees
隱世仙人♂
非常感謝,謝謝分享
2月前 #2樓
游客組