coor
一代宗師

[2007] [歐美] [劇情] [BD-4K] 美國黑幫/犯罪帝國 American.Gangster.2007.EXTENDED.2160p.UHD.BluRay.X265.10bit.HDR10Plus.

-->

帖子完整標題:美國黑幫/犯罪帝國 American.Gangster.2007.EXTENDED.2160p.UHD.BluRay.X265.10bit.HDR10Plus.DTS-X.7.1-JustWatch 49.68GB




◎譯  名 美國黑幫 / 犯罪帝國 / 美國土匪
◎片  名 American Gangster
◎年  代 2007
◎產  地 美國
◎類  別 劇情 / 犯罪
◎語  言 英語
◎上映日期 2007-11-02(美國)
◎IMDb評分 7.8/10 from 371827 users
◎IMDb鏈接 https://www.imdb.com/title/tt0765429
◎豆瓣評分 7.9/10 from 37813 users
◎豆瓣鏈接 https://movie.douban.com/subject/1578503/
◎片  長 157 分鐘
◎導  演 Ridley Scott
◎編  劇 Steven Zaillian / Mark Jacobson
◎主  演 丹澤爾·華盛頓 Denzel Washington
      羅素·克勞 Russell Crowe
      切瓦特·埃加福特 Chiwetel Ejiofor
      喬什·布洛林 Josh Brolin
      里瑪莉·娜妲 Lymari Nadal
      泰德·拉文 Ted Levine
      羅杰·格午埃文·史密斯 Roger Guenveur Smith
      約翰·浩克斯 John Hawkes
      RZA
      尤爾·瓦斯克斯 Yul Vazquez
      Malcolm Goodwin
      露比·迪 Ruby Dee
      Ruben Santiago-Hudson
      卡拉·古奇諾 Carla Gugino
      Skyler Fortgang


◎標  簽 黑幫 | 美國 | 犯罪 | DenzelWashington | 美國黑幫 | 美國電影 | RussellCrowe | 2007

◎簡  介

  上世紀70年代,哈萊姆黑人區,弗蘭克?盧卡斯(丹澤爾?華盛頓 飾)是黑幫老大約翰遜的司機。約翰遜暴斃后,弗蘭克充分利用了這個來之不易的機會,將地下世界的所有權利分配進行了重組,成功上位,接手大佬事業,掌控了毒品交易大權。期間他遠赴東南亞金三角走私高純度海洛因,張羅自己的家族兄弟,集結了一幫為他賣命的手下,一股黑暗勢力正在興起。
  另一邊,警察里奇?羅伯茨(盧塞爾?克勞 飾)家庭破裂,與主流社會格格不入,整天以一副邋遢鬼模樣流連于街頭。他慢慢覺察出毒品圈內的風起云涌,,并展開了秘密調查。
  隨著調查的深入,羅伯茨和盧卡斯之間的距離越來越短,兩個氣質相近,惺惺相惜的男人,不可避免地進行正面對決……

◎獲獎情況

  第80屆奧斯卡金像獎(2008)
  最佳女配角(提名) 露比·迪
  最佳藝術指導(提名) 阿瑟·馬克斯 / Beth A. Rubino

  第65屆金球獎(2008)
  電影類 最佳劇情片(提名)
  電影類 最佳導演(提名) 雷德利·斯科特
  電影類 劇情片最佳男主角(提名) 丹澤爾·華盛頓

  第61屆英國電影學院獎(2008)
  電影獎 最佳影片(提名) 雷德利·斯科特 / 布萊恩·格雷澤
  電影獎 最佳原創劇本(提名) 斯蒂文·澤里安
  電影獎 最佳攝影(提名) 哈里斯·薩維德斯
  電影獎 最佳剪輯(提名) 彼得羅·斯卡利亞
  電影獎 最佳原創音樂(提名) 馬克·斯特雷滕菲爾德

  第17屆MTV電影獎(2008)
  MTV電影獎 最佳男演員(提名) 丹澤爾·華盛頓
  MTV電影獎 最佳反派(提名) 丹澤爾·華盛頓
Video
ID : 1
Format : HEVC
Format/Info : High Efficiency Video Coding
Format profile : Main [email protected]@High
HDR format : SMPTE ST 2094 App 4, Version 1, HDR10+ Profile B compatible
Codec ID : V_MPEGH/ISO/HEVC
Duration : 2 h 55 min
Bit rate : 34.4 Mb/s
Width : 3 840 pixels
Height : 2 160 pixels
Display aspect ratio : 16:9
Frame rate mode : Constant
Frame rate : 23.976 (24000/1001) FPS
Color space : YUV
Chroma subsampling : 4:2:0 (Type 2)
Bit depth : 10 bits
Bits/(Pixel*Frame) : 0.173
Stream size : 42.2 GiB (85%)
Writing library : x265 3.19c5c9cef2a86:[Windows][MSVC 1900][64 bit] 10bit
Encoding settings : cpuid=1111039 / frame-threads=6 / numa-pools=16,16 / wpp / no-pmode / no-pme / no-psnr / no-ssim / log-level=2 / input-csp=1 / input-res=3840x2160 / interlace=0 / total-frames=252890 / level-idc=51 / high-tier=1 / uhd-bd=0 / ref=4 / no-allow-non-conformance / repeat-headers / annexb / aud / hrd / info / hash=0 / no-temporal-layers / no-open-gop / min-keyint=24 / keyint=240 / gop-lookahead=0 / bframes=4 / b-adapt=2 / b-pyramid / bframe-bias=0 / rc-lookahead=25 / lookahead-slices=4 / scenecut=40 / radl=0 / no-splice / no-intra-refresh / ctu=64 / min-cu-size=8 / rect / no-amp / max-tu-size=32 / tu-inter-depth=1 / tu-intra-depth=1 / limit-tu=0 / rdoq-level=2 / dynamic-rd=0.00 / no-ssim-rd / signhide / no-tskip / nr-intra=0 / nr-inter=0 / no-constrained-intra / no-strong-intra-smoothing / max-merge=3 / limit-refs=3 / limit-modes / me=3 / subme=3 / merange=57 / temporal-mvp / weightp / no-weightb / no-analyze-src-pics / deblock=-3:-3 / no-sao / no-sao-non-deblock / rd=4 / no-early-skip / rskip / no-fast-intra / no-tskip-fast / no-cu-lossless / no-b-intra / no-splitrd-skip / rdpenalty=0 / psy-rd=2.00 / psy-rdoq=1.00 / no-rd-refine / no-lossless / cbqpoffs=0 / crqpoffs=0 / rc=crf / crf=21.0 / qcomp=0.60 / qpstep=4 / stats-write=0 / stats-read=0 / vbv-maxrate=160000 / vbv-bufsize=160000 / vbv-init=0.9 / crf-max=0.0 / crf-min=0.0 / ipratio=1.40 / pbratio=1.30 / aq-mode=2 / aq-strength=1.00 / cutree / zone-count=0 / no-strict-cbr / qg-size=32 / no-rc-grain / qpmax=69 / qpmin=0 / no-const-vbv / sar=1 / overscan=0 / videoformat=5 / range=0 / colorprim=9 / transfer=16 / colormatrix=9 / chromaloc=1 / chromaloc-top=2 / chromaloc-bottom=2 / display-window=0 / master-display=G(13250,34500)B(7500,3000)R(34000,16000)WP(15635,16450)L(10000000,50)cll=1179,501 / min-luma=0 / max-luma=1023 / log2-max-poc-lsb=8 / vui-timing-info / vui-hrd-info / slices=1 / no-opt-qp-pps / no-opt-ref-list-length-pps / no-multi-pass-opt-rps / scenecut-bias=0.05 / no-opt-cu-delta-qp / no-aq-motion / hdr / hdr-opt / dhdr10-opt / no-idr-recovery-sei / analysis-reuse-level=5 / scale-factor=0 / refine-intra=0 / refine-inter=0 / refine-mv=0 / refine-ctu-distortion=0 / no-limit-sao / ctu-info=0 / no-lowpass-dct / refine-analysis-type=0 / copy-pic=1 / max-ausize-factor=1.0 / no-dynamic-refine / no-single-sei / no-hevc-aq / no-svt / no-field / qp-adaptation-range=1.00
Default : Yes
Forced : No
Color range : Limited
Color primaries : BT.2020
Transfer characteristics : PQ
Matrix coefficients : BT.2020 non-constant
Mastering display color primaries : Display P3
Mastering display luminance : min: 0.0050 cd/m2, max: 1000 cd/m2
Maximum Content Light Level : 1179 cd/m2
Maximum Frame-Average Light Level : 501 cd/m2

Audio #1
ID : 2
Format : DTS XLL X
Format/Info : Digital Theater Systems
Commercial name : DTS-HD Master Audio
Codec ID : A_DTS
Duration : 2 h 55 min
Bit rate mode : Variable
Bit rate : 5 844 kb/s
Channel(s) : 8 channels
Channel(s)_Original : Object Based
Channel layout : Object Based
Sampling rate : 48.0 kHz
Frame rate : 93.750 FPS (512 SPF)
Bit depth : 24 bits
Stream size : 7.18 GiB (14%)
Language : English
Default : No
Forced : No

Audio #2
ID : 3
Format : AC-3
Format/Info : Audio Coding 3
Commercial name : Dolby Digital
Codec ID : A_AC3
Duration : 2 h 55 min
Bit rate mode : Constant
Bit rate : 192 kb/s
Channel(s) : 2 channels
Channel layout : L R
Sampling rate : 48.0 kHz
Frame rate : 31.250 FPS (1536 SPF)
Bit depth : 16 bits
Compression mode : Lossy
Stream size : 241 MiB (0%)
Language : English
Service kind : Complete Main
Default : No
Forced : No

Text #1
ID : 4
Format : PGS
Muxing mode : zlib
Codec ID : S_HDMV/PGS
Codec ID/Info : Picture based subtitle format used on BDs/HD-DVDs
Duration : 2 h 36 min
Bit rate : 41.1 kb/s
Count of elements : 4054
Stream size : 46.1 MiB (0%)
Language : English
Default : No
Forced : No

Text #2
ID : 5
Format : PGS
Muxing mode : zlib
Codec ID : S_HDMV/PGS
Codec ID/Info : Picture based subtitle format used on BDs/HD-DVDs
Duration : 2 h 47 min
Bit rate : 41.2 kb/s
Count of elements : 5600
Stream size : 49.4 MiB (0%)
Language : English
Default : No
Forced : No

Menu
00:00:00.000 : en:00:00:00.000
00:06:48.950 : en:00:06:48.950
00:14:07.597 : en:00:14:07.597
00:25:43.167 : en:00:25:43.167
00:32:20.272 : en:00:32:20.272
00:37:33.918 : en:00:37:33.918
00:43:49.210 : en:00:43:49.210
00:51:26.125 : en:00:51:26.125
00:57:21.855 : en:00:57:21.855
01:15:31.193 : en:01:15:31.193
01:20:53.724 : en:01:20:53.724
01:29:01.586 : en:01:29:01.586
01:37:22.503 : en:01:37:22.503
01:44:01.986 : en:01:44:01.986
01:55:34.219 : en:01:55:34.219
02:04:59.450 : en:02:04:59.450
02:13:00.973 : en:02:13:00.973
02:20:08.859 : en:02:20:08.859
02:31:52.937 : en:02:31:52.937
02:48:01.822 : en:02:48:01.822





1 個附件 售價 大小 下載 時間

American.Gangster.2007.EXTENDED.2160p.UHD.BluRay.X265.10bit.HDR10Plus.DTS-X.7.1-JustWatch.torrent 0 金幣 125.04K 1225 次 7月前

#1樓
發帖時間:2019-12-08 04:14:49   |   回復數:4
911degrees
隱世仙人♂
非常感謝,謝謝分享
7月前 #2樓
liyouchai
隱世仙人♂
謝謝樓主分享資源
7月前 #3樓
kola13
一派掌門
感謝分享
7月前 #4樓
jokingcheung
一代宗師
謝謝分享
7月前 #5樓
游客組