coor
一代宗師

[更 早] [其他] [喜劇] [BD-4K] 僵尸肖恩/杠上活死人 Shaun.of.The.Dead.2004.2160p.UHD.BluRay.X265.10bit.HDR10Plus.DTS-X.7.

-->

帖子完整標題:僵尸肖恩/杠上活死人 Shaun.of.The.Dead.2004.2160p.UHD.BluRay.X265.10bit.HDR10Plus.DTS-X.7.1-JustWatch 28.23GB




◎譯  名 僵尸肖恩 / 杠上活死人 / 活人甡吃(臺) / 活死人情緣 / 笑死人兇間
◎片  名 Shaun of the Dead
◎年  代 2004
◎產  地 英國 / 法國 / 美國
◎類  別 喜劇 / 恐怖
◎語  言 英語
◎上映日期 2004-04-09(英國)
◎IMDb評分 7.9/10 from 475399 users
◎IMDb鏈接 http://www.imdb.com/title/tt0365748
◎豆瓣評分 7.7/10 from 136752 users
◎豆瓣鏈接 https://movie.douban.com/subject/1308755/
◎片  長 99 分鐘
◎導  演 埃德加·賴特 Edgar Wright
◎編  劇 埃德加·賴特 Edgar Wright / 西蒙·佩吉 Simon Pegg
◎主  演 西蒙·佩吉 Simon Pegg
      尼克·弗羅斯特 Nick Frost
      比爾·奈伊 Bill Nighy
      凱特·阿什菲爾德 Kate Ashfield
      彼得·塞拉菲諾威茨 Peter Serafinowicz
      迪蘭·莫蘭 Dylan Moran
      露茜·戴維斯 Lucy Davis
      尼古拉·坎寧安 Nicola Cunningham
      基爾·米爾斯 Keir Mills
      馬特·杰恩斯 Matt Jaynes
      加文·弗格森 Gavin Ferguson
      霍頓·朱庇特 Horton Jupiter
      蒂姆·巴格雷 Tim Baggaley
      阿爾溫德·多希 Arvind Doshi
      拉菲·斯波 Rafe Spall
      索奈爾·達卓 Sonnell Dadral


◎標  簽 黑色幽默 | 英國 | 喜劇 | 僵尸 | 英國電影 | SimonPegg | 2004 | cult

◎簡  介

  肖恩(西蒙·佩吉 Simon Pegg 飾)事業不如意,愛情也不怎么順心。認識了一幫同樣游手好閑的朋友,整天和他們廝混,包括皮特,和只會打機和討人厭的艾德。難得肖恩為了女朋友振作一次,卻遭到同事嘲笑,女友也不能會意,肖恩只有繼續和朋友醉酒縱樂。
  但這天整個城市卻有了翻天覆地的變化。僵尸入侵了,只要是被他們咬到的人,都會隨之變成僵尸。而肖恩正和艾德在酒吧里豪飲,卻發現陷入僵尸的重重包圍中。現在肖恩必須拿出英雄氣概,去捍衛家人朋友。

◎獲獎情況

  第58屆英國電影學院獎(2005)
  電影獎 最佳英國影片(提名) 埃德加·賴特 / Nira Park
  電影獎 英國本土杰出處女作(提名) Nira Park
Video
ID : 1
Format : HEVC
Format/Info : High Efficiency Video Coding
Format profile : Main [email protected]@High
HDR format : SMPTE ST 2094 App 4, Version 1, HDR10+ Profile B compatible
Codec ID : V_MPEGH/ISO/HEVC
Duration : 1 h 39 min
Bit rate : 33.5 Mb/s
Width : 3 840 pixels
Height : 2 160 pixels
Display aspect ratio : 16:9
Frame rate mode : Constant
Frame rate : 23.976 (24000/1001) FPS
Color space : YUV
Chroma subsampling : 4:2:0 (Type 2)
Bit depth : 10 bits
Bits/(Pixel*Frame) : 0.169
Stream size : 23.3 GiB (84%)
Writing library : x265 3.19c5c9cef2a86:[Windows][MSVC 1900][64 bit] 10bit
Encoding settings : cpuid=1111039 / frame-threads=6 / numa-pools=16,16 / wpp / no-pmode / no-pme / no-psnr / no-ssim / log-level=2 / input-csp=1 / input-res=3840x2160 / interlace=0 / total-frames=143021 / level-idc=51 / high-tier=1 / uhd-bd=0 / ref=4 / no-allow-non-conformance / repeat-headers / annexb / aud / hrd / info / hash=0 / no-temporal-layers / no-open-gop / min-keyint=24 / keyint=240 / gop-lookahead=0 / bframes=4 / b-adapt=2 / b-pyramid / bframe-bias=0 / rc-lookahead=25 / lookahead-slices=4 / scenecut=40 / radl=0 / no-splice / no-intra-refresh / ctu=64 / min-cu-size=8 / rect / no-amp / max-tu-size=32 / tu-inter-depth=1 / tu-intra-depth=1 / limit-tu=0 / rdoq-level=2 / dynamic-rd=0.00 / no-ssim-rd / signhide / no-tskip / nr-intra=0 / nr-inter=0 / no-constrained-intra / no-strong-intra-smoothing / max-merge=3 / limit-refs=3 / limit-modes / me=3 / subme=3 / merange=57 / temporal-mvp / weightp / no-weightb / no-analyze-src-pics / deblock=-3:-3 / no-sao / no-sao-non-deblock / rd=4 / no-early-skip / rskip / no-fast-intra / no-tskip-fast / no-cu-lossless / no-b-intra / no-splitrd-skip / rdpenalty=0 / psy-rd=2.00 / psy-rdoq=1.00 / no-rd-refine / no-lossless / cbqpoffs=0 / crqpoffs=0 / rc=crf / crf=14.5 / qcomp=0.60 / qpstep=4 / stats-write=0 / stats-read=0 / vbv-maxrate=160000 / vbv-bufsize=160000 / vbv-init=0.9 / crf-max=0.0 / crf-min=0.0 / ipratio=1.40 / pbratio=1.30 / aq-mode=2 / aq-strength=1.00 / cutree / zone-count=0 / no-strict-cbr / qg-size=32 / no-rc-grain / qpmax=69 / qpmin=0 / no-const-vbv / sar=1 / overscan=0 / videoformat=5 / range=0 / colorprim=9 / transfer=16 / colormatrix=9 / chromaloc=1 / chromaloc-top=2 / chromaloc-bottom=2 / display-window=0 / master-display=G(13250,34500)B(7500,3000)R(34000,16000)WP(15635,16450)L(10000000,50)cll=944,143 / min-luma=0 / max-luma=1023 / log2-max-poc-lsb=8 / vui-timing-info / vui-hrd-info / slices=1 / no-opt-qp-pps / no-opt-ref-list-length-pps / no-multi-pass-opt-rps / scenecut-bias=0.05 / no-opt-cu-delta-qp / no-aq-motion / hdr / hdr-opt / dhdr10-opt / no-idr-recovery-sei / analysis-reuse-level=5 / scale-factor=0 / refine-intra=0 / refine-inter=0 / refine-mv=0 / refine-ctu-distortion=0 / no-limit-sao / ctu-info=0 / no-lowpass-dct / refine-analysis-type=0 / copy-pic=1 / max-ausize-factor=1.0 / no-dynamic-refine / no-single-sei / no-hevc-aq / no-svt / no-field / qp-adaptation-range=1.00
Default : Yes
Forced : No
Color range : Limited
Color primaries : BT.2020
Transfer characteristics : PQ
Matrix coefficients : BT.2020 non-constant
Mastering display color primaries : Display P3
Mastering display luminance : min: 0.0050 cd/m2, max: 1000 cd/m2
Maximum Content Light Level : 944 cd/m2
Maximum Frame-Average Light Level : 143 cd/m2

Audio
ID : 2
Format : DTS XLL X
Format/Info : Digital Theater Systems
Commercial name : DTS-HD Master Audio
Codec ID : A_DTS
Duration : 1 h 39 min
Bit rate mode : Variable
Bit rate : 6 587 kb/s
Channel(s) : 8 channels
Channel(s)_Original : Object Based
Channel layout : Object Based
Sampling rate : 48.0 kHz
Frame rate : 93.750 FPS (512 SPF)
Bit depth : 24 bits
Stream size : 4.57 GiB (16%)
Language : English
Default : Yes
Forced : No

Text
ID : 3
Format : PGS
Muxing mode : zlib
Codec ID : S_HDMV/PGS
Codec ID/Info : Picture based subtitle format used on BDs/HD-DVDs
Duration : 1 h 34 min
Bit rate : 50.9 kb/s
Count of elements : 3084
Stream size : 34.4 MiB (0%)
Language : English
Default : No
Forced : No

Menu
00:00:00.000 : :Kapitel 01
00:03:35.048 : :Kapitel 02
00:05:02.885 : :Kapitel 03
00:07:26.571 : :Kapitel 04
00:08:52.490 : :Kapitel 05
00:12:14.942 : :Kapitel 06
00:13:50.538 : :Kapitel 07
00:15:58.958 : :Kapitel 08
00:18:26.855 : :Kapitel 09
00:21:48.515 : :Kapitel 10
00:25:34.991 : :Kapitel 11
00:28:43.388 : :Kapitel 12
00:30:53.268 : :Kapitel 13
00:33:05.775 : :Kapitel 14
00:35:23.871 : :Kapitel 15
00:36:59.592 : :Kapitel 16
00:39:33.704 : :Kapitel 17
00:40:34.932 : :Kapitel 18
00:42:11.070 : :Kapitel 19
00:46:04.553 : :Kapitel 20
00:47:41.191 : :Kapitel 21
00:48:35.996 : :Kapitel 22
00:51:32.964 : :Kapitel 23
00:55:00.672 : :Kapitel 24
00:56:49.239 : :Kapitel 25
00:58:04.564 : :Kapitel 26
01:00:09.147 : :Kapitel 27
01:04:20.398 : :Kapitel 28
01:07:50.483 : :Kapitel 29
01:10:42.947 : :Kapitel 30
01:13:57.349 : :Kapitel 31
01:16:39.428 : :Kapitel 32
01:21:23.295 : :Kapitel 33
01:25:24.828 : :Kapitel 34
01:29:58.393 : :Kapitel 35
01:31:36.491 : :Kapitel 36
01:33:47.663 : :Kapitel 37





1 個附件 售價 大小 下載 時間

Shaun.of.The.Dead.2004.2160p.UHD.BluRay.X265.10bit.HDR10Plus.DTS-X.7.1-JustWatch.torrent 0 金幣 71.37K 1106 次 7月前

#1樓
發帖時間:2019-12-08 04:16:50   |   回復數:4
911degrees
隱世仙人♂
非常感謝,謝謝分享
7月前 #2樓
liyouchai
隱世仙人♂
謝謝樓主分享資源
7月前 #3樓
kola13
一派掌門
感謝分享
7月前 #4樓
jokingcheung
一代宗師
謝謝分享
7月前 #5樓
游客組