coor
武林盟主

[2019] [歐美] [喜劇] [BD-4K] 昨日奇跡 Yesterday.2019.2160p.UHD.BluRay.X265.10bit.HDR10Plus.TrueHD.7.1.Atmos-JustW

-->

帖子完整標題:昨日奇跡 Yesterday.2019.2160p.UHD.BluRay.X265.10bit.HDR10Plus.TrueHD.7.1.Atmos-JustWatch 11.43GB




◎譯  名 昨日奇跡 / All You Need is Love / 你需要的只是愛 / 昨天 / 昨日 / 緣來自昨天(港) / 靠譜歌王(臺)
◎片  名 Yesterday
◎年  代 2019
◎產  地 英國
◎類  別 喜劇 / 音樂 / 奇幻
◎語  言 英語
◎上映日期 2019-05-05(翠貝卡電影節) / 2019-06-28(英國) / 2019-08-16(中國大陸)
◎IMDb評分 7.0/10 from 31211 users
◎IMDb鏈接 http://www.imdb.com/title/tt8079248
◎豆瓣評分 6.6/10 from 3863 users
◎豆瓣鏈接 https://movie.douban.com/subject/30165034/
◎片  長 116分鐘
◎導  演 丹尼·博伊爾 Danny Boyle
◎編  劇 杰克·巴斯 Jack Barth / 理查德·柯蒂斯 Richard Curtis
◎主  演 希米什·帕特爾 Himesh Patel
      莉莉·詹姆斯 Lily James
      艾德·希蘭 Ed Sheeran
      凱特·麥克金農 Kate McKinnon
      阿歷克斯·阿諾 Alexander Arnold
      喬爾·弗萊 Joel Fry
      詹姆斯·柯登 James Corden
      卡米利·陳 Camille Chen
      拉蒙尼·莫里斯 Lamorne Morris
      索菲婭·迪·馬蒂諾 Sophia Di Martino
      卡米拉·拉瑟福德 Camilla Rutherford
      艾利斯·查普爾 Ellise Chappell
      莎拉·蘭卡夏爾 Sarah Lancashire
      多米尼克·科爾曼 Dominic Coleman
      瑪麗安娜·斯皮瓦克 Maryana Spivak
      詹妮弗·阿爾莫 Jennifer Armour
      安娜·德·阿瑪斯 Ana de Armas
      哈廷·帕特爾 Hiten Patel
      阿圖爾·夏爾馬 Atul Sharma
      馬諾伊·阿南德 Manoj Anand
      哈里·米歇爾 Harry Michell
      珊妮·姚 Sunny Yeo
      喬希·特雷特 Josh Trett
      西蒙·P·愛德華茲 Simon P Edwards


◎標  簽 披頭士 | 音樂 | 英國 | 喜劇 | 2019 | 搖滾 | 奇幻 | 平行穿越

◎簡  介

  杰克(希米什·帕特爾 飾)是英國一個海濱小鎮上苦苦掙扎的創作型歌手,有著好友艾莉(莉莉·詹姆斯 飾)的一直支持。在一次神秘的全球大停電中發生了一起奇怪的公交車事故,杰克醒來后發現披頭士樂隊根本從未存在過。他正面臨著非常復雜的問題。
Video
ID : 1
Format : HEVC
Format/Info : High Efficiency Video Coding
Format profile : Main [email protected]@High
HDR format : SMPTE ST 2094 App 4, Version 1, HDR10+ Profile B compatible
Codec ID : V_MPEGH/ISO/HEVC
Duration : 1 h 56 min
Bit rate : 9 874 kb/s
Width : 3 840 pixels
Height : 2 160 pixels
Display aspect ratio : 16:9
Frame rate mode : Constant
Frame rate : 23.976 (24000/1001) FPS
Color space : YUV
Chroma subsampling : 4:2:0 (Type 2)
Bit depth : 10 bits
Bits/(Pixel*Frame) : 0.050
Stream size : 8.02 GiB (70%)
Writing library : x265 3.19c5c9cef2a86:[Windows][MSVC 1900][64 bit] 10bit
Encoding settings : cpuid=1111039 / frame-threads=6 / numa-pools=16,16 / wpp / no-pmode / no-pme / no-psnr / no-ssim / log-level=2 / input-csp=1 / input-res=3840x2160 / interlace=0 / total-frames=167216 / level-idc=51 / high-tier=1 / uhd-bd=0 / ref=4 / no-allow-non-conformance / repeat-headers / annexb / aud / hrd / info / hash=0 / no-temporal-layers / no-open-gop / min-keyint=24 / keyint=240 / gop-lookahead=0 / bframes=4 / b-adapt=2 / b-pyramid / bframe-bias=0 / rc-lookahead=25 / lookahead-slices=4 / scenecut=40 / radl=0 / no-splice / no-intra-refresh / ctu=64 / min-cu-size=8 / rect / no-amp / max-tu-size=32 / tu-inter-depth=1 / tu-intra-depth=1 / limit-tu=0 / rdoq-level=2 / dynamic-rd=0.00 / no-ssim-rd / signhide / no-tskip / nr-intra=0 / nr-inter=0 / no-constrained-intra / no-strong-intra-smoothing / max-merge=3 / limit-refs=3 / limit-modes / me=3 / subme=3 / merange=57 / temporal-mvp / weightp / no-weightb / no-analyze-src-pics / deblock=-3:-3 / no-sao / no-sao-non-deblock / rd=4 / no-early-skip / rskip / no-fast-intra / no-tskip-fast / no-cu-lossless / no-b-intra / no-splitrd-skip / rdpenalty=0 / psy-rd=2.00 / psy-rdoq=1.00 / no-rd-refine / no-lossless / cbqpoffs=0 / crqpoffs=0 / rc=crf / crf=13.5 / qcomp=0.60 / qpstep=4 / stats-write=0 / stats-read=0 / vbv-maxrate=160000 / vbv-bufsize=160000 / vbv-init=0.9 / crf-max=0.0 / crf-min=0.0 / ipratio=1.40 / pbratio=1.30 / aq-mode=2 / aq-strength=1.00 / cutree / zone-count=0 / no-strict-cbr / qg-size=32 / no-rc-grain / qpmax=69 / qpmin=0 / no-const-vbv / sar=1 / overscan=0 / videoformat=5 / range=0 / colorprim=9 / transfer=16 / colormatrix=9 / chromaloc=1 / chromaloc-top=2 / chromaloc-bottom=2 / display-window=0 / master-display=G(13250,34500)B(7500,3000)R(34000,16000)WP(15635,16450)L(10000000,50)cll=999,125 / min-luma=0 / max-luma=1023 / log2-max-poc-lsb=8 / vui-timing-info / vui-hrd-info / slices=1 / no-opt-qp-pps / no-opt-ref-list-length-pps / no-multi-pass-opt-rps / scenecut-bias=0.05 / no-opt-cu-delta-qp / no-aq-motion / hdr / hdr-opt / dhdr10-opt / no-idr-recovery-sei / analysis-reuse-level=5 / scale-factor=0 / refine-intra=0 / refine-inter=0 / refine-mv=0 / refine-ctu-distortion=0 / no-limit-sao / ctu-info=0 / no-lowpass-dct / refine-analysis-type=0 / copy-pic=1 / max-ausize-factor=1.0 / no-dynamic-refine / no-single-sei / no-hevc-aq / no-svt / no-field / qp-adaptation-range=1.00
Default : Yes
Forced : No
Color range : Limited
Color primaries : BT.2020
Transfer characteristics : PQ
Matrix coefficients : BT.2020 non-constant
Mastering display color primaries : Display P3
Mastering display luminance : min: 0.0050 cd/m2, max: 1000 cd/m2
Maximum Content Light Level : 999 cd/m2
Maximum Frame-Average Light Level : 125 cd/m2

Audio #1
ID : 2
Format : MLP FBA 16-ch
Format/Info : Meridian Lossless Packing FBA with 16-channel presentation
Commercial name : Dolby TrueHD with Dolby Atmos
Codec ID : A_TRUEHD
Duration : 1 h 56 min
Bit rate mode : Variable
Bit rate : 3 272 kb/s
Maximum bit rate : 5 664 kb/s
Channel(s) : 8 channels
Channel layout : L R C LFE Ls Rs Lb Rb
Sampling rate : 48.0 kHz
Frame rate : 1 200.000 FPS (40 SPF)
Compression mode : Lossless
Delay relative to video : 17 ms
Stream size : 2.66 GiB (23%)
Language : English
Default : Yes
Forced : No
Number of dynamic objects : 11
Bed channel count : 1 channel
Bed channel configuration : LFE

Audio #2
ID : 3
Format : AC-3
Format/Info : Audio Coding 3
Commercial name : Dolby Digital
Codec ID : A_AC3
Duration : 1 h 56 min
Bit rate mode : Constant
Bit rate : 448 kb/s
Channel(s) : 6 channels
Channel layout : L R C LFE Ls Rs
Sampling rate : 48.0 kHz
Frame rate : 31.250 FPS (1536 SPF)
Bit depth : 16 bits
Compression mode : Lossy
Delay relative to video : 17 ms
Stream size : 372 MiB (3%)
Language : English
Service kind : Complete Main
Default : No
Forced : No

Audio #3
ID : 4
Format : AC-3
Format/Info : Audio Coding 3
Commercial name : Dolby Digital
Codec ID : A_AC3
Duration : 1 h 56 min
Bit rate mode : Constant
Bit rate : 192 kb/s
Channel(s) : 2 channels
Channel layout : L R
Sampling rate : 48.0 kHz
Frame rate : 31.250 FPS (1536 SPF)
Bit depth : 16 bits
Compression mode : Lossy
Delay relative to video : 32 ms
Stream size : 160 MiB (1%)
Language : English
Service kind : Complete Main
Default : No
Forced : No

Text #1
ID : 5
Format : PGS
Muxing mode : zlib
Codec ID : S_HDMV/PGS
Codec ID/Info : Picture based subtitle format used on BDs/HD-DVDs
Duration : 1 h 54 min
Bit rate : 59.0 kb/s
Count of elements : 4250
Stream size : 48.5 MiB (0%)
Language : English
Default : No
Forced : No

Text #2
ID : 6
Format : PGS
Muxing mode : zlib
Codec ID : S_HDMV/PGS
Codec ID/Info : Picture based subtitle format used on BDs/HD-DVDs
Duration : 1 h 55 min
Bit rate : 79.1 kb/s
Count of elements : 4168
Stream size : 65.4 MiB (1%)
Language : English
Default : No
Forced : No

Text #3
ID : 7
Format : PGS
Muxing mode : zlib
Codec ID : S_HDMV/PGS
Codec ID/Info : Picture based subtitle format used on BDs/HD-DVDs
Duration : 1 h 54 min
Bit rate : 41.3 kb/s
Count of elements : 2592
Stream size : 33.9 MiB (0%)
Language : German
Default : No
Forced : No

Text #4
ID : 8
Format : PGS
Muxing mode : zlib
Codec ID : S_HDMV/PGS
Codec ID/Info : Picture based subtitle format used on BDs/HD-DVDs
Duration : 1 h 56 min
Bit rate : 67.3 kb/s
Count of elements : 4108
Stream size : 55.9 MiB (0%)
Language : German
Default : No
Forced : No

Text #5
ID : 9
Format : PGS
Muxing mode : zlib
Codec ID : S_HDMV/PGS
Codec ID/Info : Picture based subtitle format used on BDs/HD-DVDs
Duration : 1 h 54 min
Bit rate : 38.8 kb/s
Count of elements : 2704
Stream size : 31.8 MiB (0%)
Language : Italian
Default : No
Forced : No

Text #6
ID : 10
Format : PGS
Muxing mode : zlib
Codec ID : S_HDMV/PGS
Codec ID/Info : Picture based subtitle format used on BDs/HD-DVDs
Duration : 1 h 56 min
Bit rate : 74.8 kb/s
Count of elements : 4172
Stream size : 62.1 MiB (1%)
Language : Italian
Default : No
Forced : No

Text #7
ID : 11
Format : PGS
Muxing mode : zlib
Codec ID : S_HDMV/PGS
Codec ID/Info : Picture based subtitle format used on BDs/HD-DVDs
Duration : 1 h 54 min
Bit rate : 41.8 kb/s
Count of elements : 3366
Stream size : 34.4 MiB (0%)
Language : Turkish
Default : No
Forced : No

Menu
00:00:00.000 : en:Chapter 01
00:06:16.667 : en:Chapter 02
00:11:19.470 : en:Chapter 03
00:16:12.930 : en:Chapter 04
00:21:28.245 : en:Chapter 05
00:27:04.539 : en:Chapter 06
00:33:31.884 : en:Chapter 07
00:38:55.082 : en:Chapter 08
00:45:53.250 : en:Chapter 09
00:48:17.060 : en:Chapter 10
00:56:24.339 : en:Chapter 11
01:03:47.490 : en:Chapter 12
01:09:16.485 : en:Chapter 13
01:14:16.869 : en:Chapter 14
01:19:04.614 : en:Chapter 15
01:24:10.587 : en:Chapter 16
01:31:51.923 : en:Chapter 17
01:36:00.212 : en:Chapter 18
01:40:03.247 : en:Chapter 19
01:46:52.155 : en:Chapter 20





1 個附件 售價 大小 下載 時間

Yesterday.2019.2160p.UHD.BluRay.X265.10bit.HDR10Plus.TrueHD.7.1.Atmos-JustWatch.torrent 0 金幣 57.90K 1085 次 1月前

#1樓
發帖時間:2019-12-08 06:19:36   |   回復數:1
911degrees
隱世仙人♂
非常感謝,謝謝分享
1月前 #2樓
游客組