coor
一代宗師

[更 早] [其他] [劇情] [WEB-1080P] 愛不再回來/偷夫換妻 We.Dont.Live.Here.Anymore.2004.1080p.AMZN.WEBRip.DD5.1.x264-ABM 5.48G

-->

帖子完整標題:愛不再回來/偷夫換妻 We.Dont.Live.Here.Anymore.2004.1080p.AMZN.WEBRip.DD5.1.x264-ABM 5.48GB




◎譯  名 愛不再回來 / 偷夫換妻
◎片  名 We Don't Live Here Anymore
◎年  代 2004
◎產  地 美國 / 加拿大
◎類  別 劇情 / 愛情
◎語  言 英語
◎上映日期 2004-01-20(圣丹斯電影節)
◎IMDb評分 6.3/10 from 8938 users
◎IMDb鏈接 https://www.imdb.com/title/tt0361309
◎豆瓣評分 6.5/10 from 467 users
◎豆瓣鏈接 https://movie.douban.com/subject/1309143/
◎片  長 101 分鐘
◎導  演 約翰·卡蘭 John Curran
◎編  劇 Andre Dubus / Larry Gross
◎主  演 娜奧米·沃茨 Naomi Watts
      馬克·魯弗洛 Mark Ruffalo
      勞拉·鄧恩 Laura Dern
      彼得·克勞斯 Peter Krause


◎標  簽 美國 | NaomiWatts | 愛情 | 加拿大 | 劇情 | MarkRuffalo | 美國電影 | 娜奧米·沃茨

◎簡  介

  Jack Linden (Mark Ruffalo) and Hank Evans (Peter Krause) are best friends who both teach at the same university in a small New England town. They both have young children and Jack's wife, Terry (Laura Dern) is close with Hank's wife, Edith (Naomi Watts). But while things appear happy on the surface, there are smouldering pockets of discontent underneath. Financial struggle and domestic boredom has drained the passion from Jack and Terry's marriage, while Hank's numerous infidelities and self-absorption has prompted Edith to find both comfort and sexual fulfilment with Jack. As Jack begins spending more and more time with Edith, it becomes obvious to Terry, whose anger culminates in a sexual encounter with Hank. Now that the deception has come full circle, both couples are left to decide the futures of their shattered unions...
Video
ID : 1
Format : AVC
Format/Info : Advanced Video Codec
Format profile : [email protected]
Format settings : CABAC / 4 Ref Frames
Format settings, CABAC : Yes
Format settings, Reference frames : 4 frames
Codec ID : V_MPEG4/ISO/AVC
Duration : 1 h 38 min
Bit rate mode : Variable
Bit rate : 7 310 kb/s
Maximum bit rate : 15.0 Mb/s
Width : 1 920 pixels
Height : 1 080 pixels
Display aspect ratio : 16:9
Frame rate mode : Constant
Frame rate : 23.976 (24000/1001) FPS
Color space : YUV
Chroma subsampling : 4:2:0
Bit depth : 8 bits
Scan type : Progressive
Bits/(Pixel*Frame) : 0.147
Stream size : 5.05 GiB (92%)
Writing library : x264 core 148 r2623 d5b2374
Encoding settings : cabac=1 / ref=4 / deblock=1:-1:-1 / analyse=0x3:0x133 / me=umh / subme=9 / psy=1 / psy_rd=1.00:0.15 / mixed_ref=1 / me_range=24 / chroma_me=1 / trellis=2 / 8x8dct=1 / cqm=0 / deadzone=21,11 / fast_pskip=1 / chroma_qp_offset=-3 / threads=34 / lookahead_threads=5 / sliced_threads=0 / nr=150 / decimate=1 / interlaced=0 / bluray_compat=0 / constrained_intra=0 / bframes=8 / b_pyramid=2 / b_adapt=2 / b_bias=0 / direct=3 / weightb=1 / open_gop=0 / weightp=2 / keyint=120 / keyint_min=61 / scenecut=0 / intra_refresh=0 / rc_lookahead=120 / rc=crf / mbtree=1 / crf=18.0 / qcomp=0.60 / qpmin=0 / qpmax=69 / qpstep=4 / vbv_maxrate=15000 / vbv_bufsize=31250 / crf_max=0.0 / nal_hrd=vbr / filler=0 / ip_ratio=1.40 / aq=3:1.00
Default : Yes
Forced : No
Color range : Limited
Color primaries : BT.709
Transfer characteristics : BT.709
Matrix coefficients : BT.709

Audio #1
ID : 2
Format : AC-3
Format/Info : Audio Coding 3
Commercial name : Dolby Digital
Codec ID : A_AC3
Duration : 1 h 38 min
Bit rate mode : Constant
Bit rate : 384 kb/s
Channel(s) : 6 channels
Channel layout : L R C LFE Ls Rs
Sampling rate : 48.0 kHz
Frame rate : 31.250 FPS (1536 SPF)
Bit depth : 16 bits
Compression mode : Lossy
Stream size : 272 MiB (5%)
Language : English
Service kind : Complete Main
Default : Yes
Forced : No

Audio #2
ID : 3
Format : E-AC-3
Format/Info : Enhanced AC-3
Commercial name : Dolby Digital Plus
Codec ID : A_EAC3
Duration : 1 h 38 min
Bit rate mode : Constant
Bit rate : 224 kb/s
Channel(s) : 2 channels
Channel layout : L R
Sampling rate : 48.0 kHz
Frame rate : 31.250 FPS (1536 SPF)
Compression mode : Lossy
Stream size : 159 MiB (3%)
Language : English
Service kind : Complete Main
Default : No
Forced : No

Text #1
ID : 4
Format : UTF-8
Codec ID : S_TEXT/UTF8
Codec ID/Info : UTF-8 Plain Text
Duration : 1 h 31 min
Bit rate : 51 b/s
Count of elements : 1353
Stream size : 34.7 KiB (0%)
Language : English
Default : No
Forced : No

Text #2
ID : 5
Format : UTF-8
Codec ID : S_TEXT/UTF8
Codec ID/Info : UTF-8 Plain Text
Duration : 1 h 34 min
Bit rate : 55 b/s
Count of elements : 1586
Stream size : 38.3 KiB (0%)
Title : SDH
Language : English
Default : No
Forced : No





1 個附件 售價 大小 下載 時間

We.Dont.Live.Here.Anymore.2004.1080p.AMZN.WEBRip.DD5.1.x264-ABM.torrent 0 金幣 55.31K 441 次 7月前

#1樓
發帖時間:2019-12-08 06:29:51   |   回復數:2
911degrees
隱世仙人♂
非常感謝,謝謝分享
7月前 #2樓
kola13
一派掌門
感謝分享
7月前 #3樓
游客組