coor
一代宗師

[2017] [歐美] [劇情] [WEB-1080P] 槍聲響起/擊中我心 Shot.2017.1080p.AMZN.WEBRip.DDP5.1.x264-NTG 5.08GB

-->

帖子完整標題:槍聲響起/擊中我心 Shot.2017.1080p.AMZN.WEBRip.DDP5.1.x264-NTG 5.08GB




◎譯  名 槍聲響起 / 擊中我心
◎片  名 Shot
◎年  代 2017
◎產  地 美國
◎類  別 劇情
◎語  言 英語
◎上映日期 2017-09-29(美國)
◎IMDb評分 5.3/10 from 205 users
◎IMDb鏈接 http://www.imdb.com/title/tt4323568
◎豆瓣評分 0/10 from 0 users
◎豆瓣鏈接 https://movie.douban.com/subject/27612085/
◎片  長 89分鐘
◎導  演 杰里米·卡根 Jeremy Kagan
◎編  劇 Anneke Campbell / 杰里米·卡根 Jeremy Kagan / Will Lamborn
◎主  演 Noah Wyle
      Sharon Leal
      小豪爾赫·蘭登伯格 Jorge Lendeborg Jr.
      山德·貝克利 Xander Berkeley
      伊蓮·亨德里克斯 Elaine Hendrix
      Malcolm-Jamal Warner
      喬伊·奧斯曼斯基 Joy Osmanski
      Eve Kagan
      多米尼克·哥倫布 Dominic Colón
      Tommy Day Carey
      拉斐爾·塞布里恩 Rafael Cebrián
      Brad Lee Wind
      Sarah Clarke


◎標  簽 美國 | 控槍 | 社會 | 溫情 | 救贖 | 人生 | 重癥 | 癱瘓

◎簡  介

  Mark (Noah Wyle) and Phoebe are in the midst of a breakup. Miguel| a bullied teenager| gets an illegal gun and accidentally shoots Mark. In real time we now
  experience the consequences of getting shot. Using multiple screen techniques| we viscerally go through everything the couple goes through| and at the same time see
  how the boy tries to avoid getting caught. The story tracks the events of what the medical profession calls the "golden hour" with all efforts of EMTs and ER teams
  attempting to save Mark's life. We share Mark's shock| pain| anger| fear| humor| guilt| grief and desire for vengeance and potential redemption| and we watch how
  this all effects his troubled relationship with his wife. We also track the struggles Miguel has facing his responsibility for the shooting. After that hour of
  terror| we discover these three characters 5 months later and experience how their lives have been turned upside down| leading to a confrontation with the three of
  them when Miguel asks for ...
Video
ID : 1
Format : AVC
Format/Info : Advanced Video Codec
Format profile : [email protected]
Format settings : CABAC / 4 Ref Frames
Format settings, CABAC : Yes
Format settings, Reference frames : 4 frames
Codec ID : V_MPEG4/ISO/AVC
Duration : 1 h 26 min
Bit rate mode : Variable
Bit rate : 7 751 kb/s
Maximum bit rate : 15.0 Mb/s
Width : 1 920 pixels
Height : 800 pixels
Display aspect ratio : 2.40:1
Frame rate mode : Constant
Frame rate : 23.976 (24000/1001) FPS
Color space : YUV
Chroma subsampling : 4:2:0
Bit depth : 8 bits
Scan type : Progressive
Bits/(Pixel*Frame) : 0.210
Stream size : 4.69 GiB (92%)
Default : Yes
Forced : No
Color range : Limited
Color primaries : BT.709
Transfer characteristics : BT.709
Matrix coefficients : BT.709

Audio
ID : 2
Format : E-AC-3
Format/Info : Enhanced AC-3
Commercial name : Dolby Digital Plus
Codec ID : A_EAC3
Duration : 1 h 26 min
Bit rate mode : Constant
Bit rate : 640 kb/s
Channel(s) : 6 channels
Channel layout : L R C LFE Ls Rs
Sampling rate : 48.0 kHz
Frame rate : 31.250 FPS (1536 SPF)
Compression mode : Lossy
Stream size : 397 MiB (8%)
Language : English
Service kind : Complete Main
Default : Yes
Forced : No

Text
ID : 3
Format : UTF-8
Codec ID : S_TEXT/UTF8
Codec ID/Info : UTF-8 Plain Text
Duration : 1 h 25 min
Bit rate : 57 b/s
Count of elements : 1541
Stream size : 36.1 KiB (0%)
Title : SDH
Language : English
Default : No
Forced : No





1 個附件 售價 大小 下載 時間

Shot.2017.1080p.AMZN.WEBRip.DDP5.1.x264-NTG.torrent 0 金幣 51.33K 217 次 7月前

#1樓
發帖時間:2019-12-08 06:43:51   |   回復數:1
911degrees
隱世仙人♂
非常感謝,謝謝分享
7月前 #2樓
游客組