coor
一代宗師

[2012] [歐美] [劇情] [WEB-1080P] 三心二意 Of.Two.Minds.2012.1080p.AMZN.WEBRip.DDP5.1.x264-ABM 5.93GB

-->

帖子完整標題:三心二意 Of.Two.Minds.2012.1080p.AMZN.WEBRip.DDP5.1.x264-ABM 5.93GB




◎譯  名 三心二意
◎片  名 Of Two Minds
◎年  代 2012
◎產  地 美國
◎類  別 劇情
◎語  言 英語
◎上映日期 2012-08-17
◎IMDb評分 6.1/10 from 418 users
◎IMDb鏈接 https://www.imdb.com/title/tt2088846
◎豆瓣評分 0/10 from 0 users
◎豆瓣鏈接 https://movie.douban.com/subject/20644912/
◎片  長 88分鐘
◎導  演 Jim O'Hanlon
◎編  劇 理查德·弗雷登伯格 Richard Friedenberg
◎主  演 克里斯汀·戴維斯 Kristin Davis
      坦米·布蘭查德 Tammy Blanchard
      喬·格拉什 Joel Gretsch
      邦妮·芭利特 Bonnie Bartlett
      杰西卡·倫迪 Jessica Lundy
      安東尼·阿吉吉 Anthony Azizi
      卡爾利斯·布克 Carlease Burke
      路易絲·弗萊徹 Louise Fletcher


◎標  簽 法國 | 躁郁 | 紀錄片 | 美國 | 美國 | 2012

◎簡  介

  比莉曾是一個幸福的女人,擁有愛她的丈夫,兩個健康的小孩,一個溫馨的家,和一份不錯的工作,但是當她母親去世后,她就得負擔起照顧她患有精神分裂癥的妹妹的責任,可就在這個家庭變故之后不久,比莉開始意識到,其實她無法給予她妹妹的所需要的一切??
Video
ID : 1
Format : AVC
Format/Info : Advanced Video Codec
Format profile : [email protected]
Format settings : CABAC / 4 Ref Frames
Format settings, CABAC : Yes
Format settings, Reference frames : 4 frames
Codec ID : V_MPEG4/ISO/AVC
Duration : 1 h 28 min
Bit rate mode : Variable
Bit rate : 8 975 kb/s
Maximum bit rate : 15.0 Mb/s
Width : 1 920 pixels
Height : 1 080 pixels
Display aspect ratio : 16:9
Frame rate mode : Constant
Frame rate : 23.976 (24000/1001) FPS
Color space : YUV
Chroma subsampling : 4:2:0
Bit depth : 8 bits
Scan type : Progressive
Bits/(Pixel*Frame) : 0.181
Stream size : 5.53 GiB (93%)
Writing library : x264 core 148 r2623 d5b2374
Encoding settings : cabac=1 / ref=4 / deblock=1:-1:-1 / analyse=0x3:0x133 / me=umh / subme=9 / psy=1 / psy_rd=1.00:0.15 / mixed_ref=1 / me_range=24 / chroma_me=1 / trellis=2 / 8x8dct=1 / cqm=0 / deadzone=21,11 / fast_pskip=1 / chroma_qp_offset=-3 / threads=34 / lookahead_threads=5 / sliced_threads=0 / nr=150 / decimate=1 / interlaced=0 / bluray_compat=0 / constrained_intra=0 / bframes=8 / b_pyramid=2 / b_adapt=2 / b_bias=0 / direct=3 / weightb=1 / open_gop=0 / weightp=2 / keyint=120 / keyint_min=61 / scenecut=0 / intra_refresh=0 / rc_lookahead=120 / rc=crf / mbtree=1 / crf=18.0 / qcomp=0.60 / qpmin=0 / qpmax=69 / qpstep=4 / vbv_maxrate=15000 / vbv_bufsize=31250 / crf_max=0.0 / nal_hrd=vbr / filler=0 / ip_ratio=1.40 / aq=3:1.00
Default : Yes
Forced : No
Color range : Limited
Color primaries : BT.709
Transfer characteristics : BT.709
Matrix coefficients : BT.709

Audio
ID : 2
Format : E-AC-3
Format/Info : Enhanced AC-3
Commercial name : Dolby Digital Plus
Codec ID : A_EAC3
Duration : 1 h 28 min
Bit rate mode : Constant
Bit rate : 640 kb/s
Channel(s) : 6 channels
Channel layout : L R C LFE Ls Rs
Sampling rate : 48.0 kHz
Frame rate : 31.250 FPS (1536 SPF)
Compression mode : Lossy
Stream size : 404 MiB (7%)
Language : English
Service kind : Complete Main
Default : Yes
Forced : No

Text #1
ID : 3
Format : UTF-8
Codec ID : S_TEXT/UTF8
Codec ID/Info : UTF-8 Plain Text
Duration : 1 h 25 min
Bit rate : 57 b/s
Count of elements : 1400
Stream size : 35.8 KiB (0%)
Language : English
Default : No
Forced : No

Text #2
ID : 4
Format : UTF-8
Codec ID : S_TEXT/UTF8
Codec ID/Info : UTF-8 Plain Text
Duration : 1 h 27 min
Bit rate : 58 b/s
Count of elements : 1522
Stream size : 37.5 KiB (0%)
Title : SDH
Language : English
Default : No
Forced : No





1 個附件 售價 大小 下載 時間

Of.Two.Minds.2012.1080p.AMZN.WEBRip.DDP5.1.x264-ABM.torrent 0 金幣 59.80K 238 次 7月前

#1樓
發帖時間:2019-12-08 06:45:49   |   回復數:1
911degrees
隱世仙人♂
非常感謝,謝謝分享
7月前 #2樓
游客組