coor
一代宗師

[2018] [歐美] [喜劇] [WEB-1080P] 高中殺手 Killer.High.2018.1080p.AMZN.WEBRip.DDP5.1.x264-CM 4.94GB

-->

帖子完整標題:高中殺手 Killer.High.2018.1080p.AMZN.WEBRip.DDP5.1.x264-CM 4.94GB




◎譯  名 高中殺手
◎片  名 Killer High
◎年  代 2018
◎產  地 美國
◎類  別 喜劇 / 恐怖
◎語  言 英語
◎上映日期 2018-10-20(Syfy channel)
◎IMDb評分 4.9/10 from 481 users
◎IMDb鏈接 https://www.imdb.com/title/tt8466648
◎豆瓣評分 0/10 from 0 users
◎豆瓣鏈接 https://movie.douban.com/subject/30331811/
◎片  長 87分鐘
◎導  演 Jem Garrard
◎編  劇 Suzanne Keilly
◎主  演 凱西·羅爾 Kacey Rohl
      亨伯利·岡薩雷斯 Humberly González
      Asha Bromfield
      斯賓塞·麥克弗森 Spencer Macpherson
      Varun Saranga
      Nikki Duval
      Jonathan Langdon
      勞倫·科林斯 Lauren Collins
      琳達·格蘭遜 Linda Goranson
      陳庭妮 Annie Chen
      布萊特妮·布里斯托 Brittany Bristow
      凱特·羅斯 Kate Ross
      Michael Xavier
      Michael Dufays
      Kenny Wong


◎標  簽 恐怖 | 美國 | 2018 | 喜劇 | 凱西·羅爾 | 美國電影 | 青春 | 驚悚

◎簡  介

  Sabrina Swanson, obsessed with putting on the perfect ten-year high school reunion, is forced to team up with her arch-nemesis after the school’s mascot morphs into a blood thirsty warthog, threatening the graduates of Wallingham High…
Video
ID : 1
Format : AVC
Format/Info : Advanced Video Codec
Format profile : [email protected]
Format settings : CABAC / 4 Ref Frames
Format settings, CABAC : Yes
Format settings, Reference frames : 4 frames
Codec ID : V_MPEG4/ISO/AVC
Duration : 1 h 27 min
Bit rate : 7 434 kb/s
Width : 1 920 pixels
Height : 1 080 pixels
Display aspect ratio : 16:9
Frame rate mode : Constant
Frame rate : 23.976 (24000/1001) FPS
Color space : YUV
Chroma subsampling : 4:2:0
Bit depth : 8 bits
Scan type : Progressive
Bits/(Pixel*Frame) : 0.150
Stream size : 4.55 GiB (92%)
Default : Yes
Forced : No
Color range : Limited
Color primaries : BT.709
Transfer characteristics : BT.709
Matrix coefficients : BT.709

Audio
ID : 2
Format : E-AC-3
Format/Info : Enhanced AC-3
Commercial name : Dolby Digital Plus
Codec ID : A_EAC3
Duration : 1 h 27 min
Bit rate mode : Constant
Bit rate : 640 kb/s
Channel(s) : 6 channels
Channel layout : L R C LFE Ls Rs
Sampling rate : 48.0 kHz
Frame rate : 31.250 FPS (1536 SPF)
Compression mode : Lossy
Stream size : 401 MiB (8%)
Title : English
Language : English
Service kind : Complete Main
Default : Yes
Forced : No





1 個附件 售價 大小 下載 時間

Killer.High.2018.1080p.AMZN.WEBRip.DDP5.1.x264-CM.torrent 0 金幣 49.93K 273 次 7月前

#1樓
發帖時間:2019-12-08 06:53:46   |   回復數:1
911degrees
隱世仙人♂
非常感謝,謝謝分享
7月前 #2樓
游客組