coor
一代宗師

[2018] [其他] [喜劇] [WEB-1080P] 來了一只發火的龍 Here.Comes.the.Grump.2018.1080p.AMZN.WEBRip.DDP5.1.x264-CM 3.19GB

-->

帖子完整標題:來了一只發火的龍 Here.Comes.the.Grump.2018.1080p.AMZN.WEBRip.DDP5.1.x264-CM 3.19GB




◎譯  名 來了一只發火的龍 / A Wizard's Tale / Here Comes the Grump
◎片  名 Ahí viene Cascarrabias
◎年  代 2018
◎產  地 英國 / 墨西哥 / 美國
◎類  別 喜劇 / 動畫 / 家庭 / 奇幻 / 冒險
◎上映日期 2018-11(英國)
◎IMDb評分 4.7/10 from 479 users
◎IMDb鏈接 http://www.imdb.com/title/tt6494344
◎豆瓣評分 0/10 from 0 users
◎豆瓣鏈接 https://movie.douban.com/subject/27163497/
◎片  長 97分鐘
◎導  演 Andrés Couturier
◎編  劇 吉姆·赫克特 Jim Hecht
◎主  演 莉莉·柯林斯 Lily Collins
      伊恩·麥柯肖恩 Ian McShane
      托比·凱貝爾 Toby Kebbell


◎標  簽 動畫 | 英國 | 奇幻 | 墨西哥 | 2018 | 美國 | 冒險 | 莉莉柯林斯

◎簡  介

  莉莉·柯林斯、伊恩·麥柯肖恩、托比·凱貝爾加盟動畫電影[來了一只發火的龍](
  Here Comes the Grump,暫譯)配音團隊。影片改編自上世紀60年代NBC頻道播出的動畫劇集,講述勇敢的公主帶領她的伙伴,共同對抗邪惡巫師和他的小火龍,打破魔咒的冒險故事。目前影片配音工作正在洛杉磯進行。
Video
ID : 1
Format : AVC
Format/Info : Advanced Video Codec
Format profile : [email protected]
Format settings : CABAC / 4 Ref Frames
Format settings, CABAC : Yes
Format settings, Reference frames : 4 frames
Codec ID : V_MPEG4/ISO/AVC
Duration : 1 h 37 min
Bit rate mode : Variable
Bit rate : 4 065 kb/s
Maximum bit rate : 15.0 Mb/s
Width : 1 920 pixels
Height : 800 pixels
Display aspect ratio : 2.40:1
Frame rate mode : Constant
Frame rate : 23.976 (24000/1001) FPS
Color space : YUV
Chroma subsampling : 4:2:0
Bit depth : 8 bits
Scan type : Progressive
Bits/(Pixel*Frame) : 0.110
Stream size : 2.76 GiB (86%)
Default : Yes
Forced : No
Color range : Limited
Color primaries : BT.709
Transfer characteristics : BT.709
Matrix coefficients : BT.709

Audio
ID : 2
Format : E-AC-3
Format/Info : Enhanced AC-3
Commercial name : Dolby Digital Plus
Codec ID : A_EAC3
Duration : 1 h 37 min
Bit rate mode : Constant
Bit rate : 640 kb/s
Channel(s) : 6 channels
Channel layout : L R C LFE Ls Rs
Sampling rate : 48.0 kHz
Frame rate : 31.250 FPS (1536 SPF)
Compression mode : Lossy
Stream size : 445 MiB (14%)
Title : English
Language : English
Service kind : Complete Main
Default : Yes
Forced : No





1 個附件 售價 大小 下載 時間

Here.Comes.the.Grump.2018.1080p.AMZN.WEBRip.DDP5.1.x264-CM.torrent 0 金幣 64.42K 224 次 7月前

#1樓
發帖時間:2019-12-08 06:59:53   |   回復數:1
911degrees
隱世仙人♂
非常感謝,謝謝分享
7月前 #2樓
游客組