coor
武林盟主

[2018] [韓國] [喜劇] [BD-1080P] 奇妙的家族 The.Odd.Family.Zombie.On.Sale.2019.KOREAN.1080p.BluRay.x264-WiKi 8.40GB

-->

帖子完整標題:奇妙的家族 The.Odd.Family.Zombie.On.Sale.2019.KOREAN.1080p.BluRay.x264-WiKi 8.40GB




◎譯  名 奇妙的家族 / The Odd Family: Zombie On Sale / 僵尸家族 / 搶錢大尸殺(港 / 臺)
◎片  名 ??? ??
◎年  代 2018
◎產  地 韓國
◎類  別 喜劇 / 恐怖
◎語  言 韓語
◎上映日期 2019-02-13(韓國)
◎IMDb評分 6.6/10 from 279 users
◎IMDb鏈接 https://www.imdb.com/title/tt9765144
◎豆瓣評分 7.1/10 from 5564 users
◎豆瓣鏈接 https://movie.douban.com/subject/27114963/
◎片  長 112分鐘
◎導  演 李珉才 Lee Min-jae
◎編  劇 李珉才 Min-jae Lee
◎主  演 鄭在詠 Jae-yeong Jeong
      金南佶 Nam-gil Kim
      嚴志媛 Ji-won Uhm
      李秀卿 Soo-kyung Lee
      鄭家蘭 JUNG Garam
      樸仁煥 In-hwan Park
      申正根 Jeong-geun Sin
      吳義植 Eui-sik Oh
      金基天 Ki-cheon Kim
      李東熙 Dong-hee Lee
      具本雄 Bon-woong Koo
      柳淳哲 Sun-cheol Yu
      崔鐘律 Jong-ryeol Choi
      李英錫 Yeong-seok Lee
      李晟宇 Sung-woo Lee
      李佳英 Ga-kyung Lee
      劉炳洙 Byung-sun Yoo
      吳順泰 Soon-tae Oh
      金妍貞 Yeon-jung Kim
      鄭宇榮 Woo-yeong Jeong
      高東亨 Dong-hyeong Go
      張恩鐘 Eun-chong Jang
      紀煥 Ji Hwan
      崔英民 Young-min Choi
      蔡恩珠 Eun-joo Chae
      金昌朱 Chang-jo Kim
      全裴修 Bae-soo Jeon


◎標  簽 喜劇 | 喪尸 | 韓國 | 韓國電影 | 僵尸 | 2019 | 恐怖 | 電影

◎簡  介

  《奇妙的家族》主要講述的是因某天突然出現的神秘家伙令充滿個性的一家人與安靜的鄉下村莊變得一片混亂的異想天開的喜劇故事。
Video
ID : 1
Format : AVC
Format/Info : Advanced Video Codec
Format profile : [email protected]
Format settings : CABAC / 5 Ref Frames
Format settings, CABAC : Yes
Format settings, Reference frames : 5 frames
Codec ID : V_MPEG4/ISO/AVC
Duration : 1 h 52 min
Bit rate : 10.1 Mb/s
Width : 1 920 pixels
Height : 804 pixels
Display aspect ratio : 2.40:1
Frame rate mode : Constant
Frame rate : 24.000 FPS
Color space : YUV
Chroma subsampling : 4:2:0
Bit depth : 8 bits
Scan type : Progressive
Bits/(Pixel*Frame) : 0.272
Stream size : 7.90 GiB (94%)
Writing library : x264 core 129 r2245+704+36 8e61944 tMod+MixAQ [[email protected]:2:0 X86_64]
Encoding settings : cabac=1 / ref=5 / deblock=1:-3:-3 / analyse=0x3:0x133 / me=umh / subme=11 / psy=1 / fade_compensate=0.00 / psy_rd=1.05:0.10 / mixed_ref=1 / me_range=32 / chroma_me=1 / trellis=2 / 8x8dct=1 / cqm=0 / deadzone=21,11 / fast_pskip=0 / chroma_qp_offset=-3 / threads=18 / lookahead_threads=3 / sliced_threads=0 / nr=0 / decimate=0 / interlaced=0 / bluray_compat=0 / constrained_intra=0 / fgo=0 / bframes=10 / b_pyramid=2 / b_adapt=2 / b_bias=0 / direct=3 / weightb=1 / open_gop=0 / weightp=2 / keyint=250 / keyint_min=24 / scenecut=40 / intra_refresh=0 / rc=2pass / mbtree=0 / bitrate=10074 / ratetol=1.0 / qcomp=0.70 / qpmin=0 / qpmax=69 / qpstep=4 / cplxblur=20.0 / qblur=0.5 / ip_ratio=1.40 / pb_ratio=1.30 / aq=1 / aq-strength=0.90 / aq-sensitivity=10.00 / aq-ifactor=1.00 / aq-pfactor=1.00 / aq-bfactor=1.00 / aq2=0
Language : Korean
Default : Yes
Forced : No

Audio
ID : 2
Format : AC-3
Format/Info : Audio Coding 3
Commercial name : Dolby Digital
Codec ID : A_AC3
Duration : 1 h 52 min
Bit rate mode : Constant
Bit rate : 640 kb/s
Channel(s) : 6 channels
Channel layout : L R C LFE Ls Rs
Sampling rate : 48.0 kHz
Frame rate : 31.250 FPS (1536 SPF)
Bit depth : 16 bits
Compression mode : Lossy
Stream size : 514 MiB (6%)
Language : Korean
Service kind : Complete Main
Default : Yes
Forced : No

Text #1
ID : 3
Format : UTF-8
Codec ID : S_TEXT/UTF8
Codec ID/Info : UTF-8 Plain Text
Duration : 1 h 47 min
Bit rate : 37 b/s
Count of elements : 1281
Stream size : 29.6 KiB (0%)
Language : English
Default : Yes
Forced : No

Text #2
ID : 4
Format : UTF-8
Codec ID : S_TEXT/UTF8
Codec ID/Info : UTF-8 Plain Text
Duration : 1 h 47 min
Bit rate : 40 b/s
Count of elements : 1589
Stream size : 31.5 KiB (0%)
Title : 國語簡體
Language : Chinese
Default : No
Forced : No

Text #3
ID : 5
Format : UTF-8
Codec ID : S_TEXT/UTF8
Codec ID/Info : UTF-8 Plain Text
Duration : 1 h 47 min
Bit rate : 40 b/s
Count of elements : 1589
Stream size : 31.5 KiB (0%)
Title : 國語繁體
Language : Chinese
Default : No
Forced : No

Text #4
ID : 6
Format : UTF-8
Codec ID : S_TEXT/UTF8
Codec ID/Info : UTF-8 Plain Text
Duration : 1 h 47 min
Bit rate : 28 b/s
Count of elements : 1234
Stream size : 22.7 KiB (0%)
Title : 粵語簡體
Language : Chinese
Default : No
Forced : No

Text #5
ID : 7
Format : UTF-8
Codec ID : S_TEXT/UTF8
Codec ID/Info : UTF-8 Plain Text
Duration : 1 h 47 min
Bit rate : 28 b/s
Count of elements : 1234
Stream size : 22.7 KiB (0%)
Title : 粵語繁體
Language : Chinese
Default : No
Forced : No

Menu
00:00:00.000 : en:第 01 章
00:07:15.125 : en:第 02 章
00:11:45.083 : en:第 03 章
00:16:49.500 : en:第 04 章
00:22:46.833 : en:第 05 章
00:27:55.458 : en:第 06 章
00:33:36.750 : en:第 07 章
00:39:12.000 : en:第 08 章
00:44:29.458 : en:第 09 章
00:48:10.750 : en:第 10 章
00:52:12.750 : en:第 11 章
01:00:46.666 : en:第 12 章
01:06:08.250 : en:第 13 章
01:10:11.875 : en:第 14 章
01:17:25.833 : en:第 15 章
01:24:38.666 : en:第 16 章
01:29:13.833 : en:第 17 章
01:35:46.125 : en:第 18 章
01:42:12.500 : en:第 19 章
01:47:17.208 : en:第 20 章





1 個附件 售價 大小 下載 時間

The.Odd.Family.Zombie.On.Sale.2019.KOREAN.1080p.BluRay.x264-WiKi.torrent 0 金幣 42.56K 3857 次 1月前

#1樓
發帖時間:2019-12-13 12:38:13   |   回復數:3
kola13
一派掌門
感謝分享
1月前 #2樓
liyouchai
隱世仙人♂
謝謝樓主分享資源
1月前 #3樓
911degrees
隱世仙人♂
非常感謝,謝謝分享
1月前 #4樓
游客組