coor
一代宗師

[2013] [印度] [劇情] [BD-1080P] 丑惡/丑 Ugly.2013.1080p.BluRay.x264-REGRET 8.76GB

-->

帖子完整標題:丑惡/丑 Ugly.2013.1080p.BluRay.x264-REGRET 8.76GB




◎譯  名 丑惡 / 丑 / 責難游戲
◎片  名 Ugly
◎年  代 2013
◎產  地 印度
◎類  別 劇情 / 懸疑 / 犯罪
◎語  言 印地語
◎上映日期 2013-05-17(戛納電影節) / 2014-12-26(印度)
◎IMDb評分 8.1/10 from 18566 users
◎IMDb鏈接 https://www.imdb.com/title/tt2882328
◎豆瓣評分 7.5/10 from 1577 users
◎豆瓣鏈接 https://movie.douban.com/subject/24324732/
◎片  長 128分鐘
◎導  演 阿努拉格·卡施亞普 Anurag Kashyap
◎編  劇 阿努拉格·卡施亞普 Anurag Kashyap
◎主  演 阿莉雅·布哈特 Alia Bhatt
      蘇莉溫.查瓦拉 Surveen Chawla
      洛尼特·羅伊 Ronit Roy
      Rahul Bhat


◎標  簽 印度 | 懸疑 | 犯罪 | 人性 | 印度電影 | 2013 | 劇情 | 阿努拉格·卡施亞普

◎簡  介

  落魄的過氣男演員和前妻育有一女,離婚后,妻子帶著女兒改嫁警察局局長。一日,演員父親帶著愛女一同去參加試鏡,被留在車內的女兒卻離奇失蹤。警長父親得知消息后,也加入搜索的行列。然而,搜救的過程中種種丑陋真相竟一一開始浮現。

◎獲獎情況

  第17屆富川國際奇幻電影節(2013)
  富川選擇獎(長片) 最佳影片(提名) 阿努拉格·卡施亞普
  富川選擇獎(長片) 最佳導演 阿努拉格·卡施亞普
Video
ID : 1
Format : AVC
Format/Info : Advanced Video Codec
Format profile : [email protected]
Format settings : CABAC / 5 Ref Frames
Format settings, CABAC : Yes
Format settings, Reference frames : 5 frames
Codec ID : V_MPEG4/ISO/AVC
Duration : 2 h 5 min
Bit rate : 8 508 kb/s
Width : 1 920 pixels
Height : 808 pixels
Display aspect ratio : 2.40:1
Frame rate mode : Constant
Frame rate : 24.000 FPS
Color space : YUV
Chroma subsampling : 4:2:0
Bit depth : 8 bits
Scan type : Progressive
Bits/(Pixel*Frame) : 0.229
Stream size : 7.43 GiB (85%)
Writing library : x264 core 159 r2991 1771b55
Encoding settings : cabac=1 / ref=5 / deblock=1:-3:-3 / analyse=0x3:0x133 / me=umh / subme=9 / psy=1 / psy_rd=1.00:0.00 / mixed_ref=1 / me_range=16 / chroma_me=1 / trellis=2 / 8x8dct=1 / cqm=0 / deadzone=21,11 / fast_pskip=0 / chroma_qp_offset=-2 / threads=24 / lookahead_threads=2 / sliced_threads=0 / nr=0 / decimate=1 / interlaced=0 / bluray_compat=0 / constrained_intra=0 / bframes=3 / b_pyramid=2 / b_adapt=1 / b_bias=0 / direct=3 / weightb=1 / open_gop=0 / weightp=2 / keyint=240 / keyint_min=24 / scenecut=40 / intra_refresh=0 / rc_lookahead=50 / rc=2pass / mbtree=1 / bitrate=8508 / ratetol=1.0 / qcomp=0.60 / qpmin=0 / qpmax=69 / qpstep=4 / cplxblur=20.0 / qblur=0.5 / ip_ratio=1.40 / aq=1:1.00
Language : English
Default : Yes
Forced : No

Audio
ID : 2
Format : DTS
Format/Info : Digital Theater Systems
Codec ID : A_DTS
Duration : 2 h 4 min
Bit rate mode : Constant
Bit rate : 1 509 kb/s
Channel(s) : 6 channels
Channel layout : C L R Ls Rs LFE
Sampling rate : 48.0 kHz
Frame rate : 93.750 FPS (512 SPF)
Bit depth : 24 bits
Compression mode : Lossy
Delay relative to video : 491 ms
Stream size : 1.32 GiB (15%)
Language : Hindi
Default : Yes
Forced : No

Text
ID : 3
Format : UTF-8
Codec ID : S_TEXT/UTF8
Codec ID/Info : UTF-8 Plain Text
Duration : 2 h 1 min
Bit rate : 49 b/s
Count of elements : 1240
Stream size : 43.5 KiB (0%)
Title : English Forced
Language : English
Default : Yes
Forced : Yes

Menu
00:00:00.000 : en:Chapter 01
00:08:41.583 : en:Chapter 02
00:14:26.958 : en:Chapter 03
00:24:06.792 : en:Chapter 04
00:34:00.708 : en:Chapter 05
00:46:14.167 : en:Chapter 06
00:54:57.958 : en:Chapter 07
01:03:43.333 : en:Chapter 08
01:13:55.083 : en:Chapter 09
01:25:38.125 : en:Chapter 10
01:34:15.542 : en:Chapter 11
01:42:36.250 : en:Chapter 12
01:49:35.292 : en:Chapter 13
01:57:24.833 : en:Chapter 14
02:01:47.292 : en:Chapter 15





1 個附件 售價 大小 下載 時間

Ugly.2013.1080p.BluRay.x264-REGRET.torrent 0 金幣 44.62K 819 次 3月前

#1樓
發帖時間:2020-05-11 13:32:25   |   回復數:2
911degrees
隱世仙人♂
非常感謝,謝謝分享
3月前 #2樓
liyouchai
隱世仙人♂
謝謝樓主分享資源
2月前 #3樓
游客組